<?xml version="1.0" standalone="no"?>
<!DOCTYPE svg PUBLIC "-//W3C//DTD SVG 1.1//EN" "http://www.w3.org/Graphics/SVG/1.1/DTD/svg11.dtd" >
<!--
2013-9-30: Created.
-->
<svg>
<metadata>
Created by iconfont
</metadata>
<defs>

<font id="iconfont" horiz-adv-x="1024" >
  <font-face
    font-family="iconfont"
    font-weight="500"
    font-stretch="normal"
    units-per-em="1024"
    ascent="896"
    descent="-128"
  />
    <missing-glyph />
    
    <glyph glyph-name="check-circle" unicode="&#59261;" d="M699 543h-46.9c-10.2 0-19.9-4.9-25.9-13.3L469 311.70000000000005l-71.2 98.8c-6 8.3-15.6 13.3-25.9 13.3H325c-6.5 0-10.3-7.4-6.5-12.7l124.6-172.8c12.7-17.7 39-17.7 51.7 0l210.6 292c3.9 5.3 0.1 12.7-6.4 12.7zM512 832C264.6 832 64 631.4 64 384s200.6-448 448-448 448 200.6 448 448S759.4 832 512 832z m0-820c-205.4 0-372 166.6-372 372s166.6 372 372 372 372-166.6 372-372-166.6-372-372-372z"  horiz-adv-x="1024" />

    
    <glyph glyph-name="CI" unicode="&#59262;" d="M512 832C264.6 832 64 631.4 64 384s200.6-448 448-448 448 200.6 448 448S759.4 832 512 832z m0-820c-205.4 0-372 166.6-372 372s166.6 372 372 372 372-166.6 372-372-166.6-372-372-372zM730 584.1h-50.4c-4.4 0-8-3.6-8-8v-384.2c0-4.4 3.6-8 8-8H730c4.4 0 8 3.6 8 8V576.1c0 4.4-3.6 8-8 8zM448.6 534.5c49.5 0 83.1-31.5 87-77.6 0.4-4.2 3.8-7.4 8-7.4h52.6c2.4 0 4.4 2 4.4 4.4 0 81.2-64 138.1-152.3 138.1C345.4 592 286 522.5 286 407.6v-49c0-114 59.4-182.6 162.3-182.6 88 0 152.3 55.1 152.3 132.5 0 2.4-2 4.4-4.4 4.4h-52.7c-4.2 0-7.6-3.2-8-7.3-4.2-43-37.7-72.4-87-72.4-61.1 0-95.6 44.9-95.6 125.2v49.3c0.1 81.4 34.6 126.8 95.7 126.8z"  horiz-adv-x="1024" />

    
    <glyph glyph-name="Dollar" unicode="&#59263;" d="M512 832C264.6 832 64 631.4 64 384s200.6-448 448-448 448 200.6 448 448S759.4 832 512 832z m0-820c-205.4 0-372 166.6-372 372s166.6 372 372 372 372-166.6 372-372-166.6-372-372-372zM559.7 407.2l-25.4 5.9V547.4c38-5.2 61.5-29 65.5-58.2 0.5-4 3.9-6.9 7.9-6.9h44.9c4.7 0 8.4 4.1 8 8.8-6.1 62.3-57.4 102.3-125.9 109.2V633c0 4.4-3.6 8-8 8h-28.1c-4.4 0-8-3.6-8-8v-33c-70.8-6.9-126.2-46-126.2-119 0-67.6 49.8-100.2 102.1-112.7l24.7-6.3v-142.7c-44.2 5.9-69 29.5-74.1 61.3-0.6 3.8-4 6.6-7.9 6.6H363c-4.7 0-8.4-4-8-8.7 4.5-55 46.2-105.6 135.2-112.1V135c0-4.4 3.6-8 8-8h28.4c4.4 0 8 3.6 8 8.1l-0.2 31.7c78.3 6.9 134.3 48.8 134.3 124-0.1 69.4-44.2 100.4-109 116.4z m-68.6 16.2c-5.6 1.6-10.3 3.1-15 5-33.8 12.2-49.5 31.9-49.5 57.3 0 36.3 27.5 57 64.5 61.7v-124zM534.3 219V352.7c3.1-0.9 5.9-1.6 8.8-2.2 47.3-14.4 63.2-34.4 63.2-65.1 0-39.1-29.4-62.6-72-66.4z"  horiz-adv-x="1024" />

    
    <glyph glyph-name="compass" unicode="&#59264;" d="M512 832C264.6 832 64 631.4 64 384s200.6-448 448-448 448 200.6 448 448S759.4 832 512 832z m0-820c-205.4 0-372 166.6-372 372s166.6 372 372 372 372-166.6 372-372-166.6-372-372-372zM710.4 600.1c-8 3.1-16.7 2.9-24.5-0.5L414.9 481 296.4 210c-3.6-8.2-3.6-17.5 0-25.7 3.4-7.8 9.7-13.9 17.7-17 3.8-1.5 7.7-2.2 11.7-2.2 4.4 0 8.7 0.9 12.8 2.7l271 118.6 118.5 271c3.6 8.2 3.6 17.5 0 25.7-3.5 7.9-9.8 13.9-17.7 17zM576.8 361.6l26.2-26.2-42.4-42.4-26.2 26.2L380 251.6 447.5 406 422 431.6l42.4 42.4 25.5-25.5L644.4 516l-67.6-154.4zM464.4 474L422 431.6l25.5-25.6 86.9-86.8 26.2-26.2 42.4 42.4-26.2 26.2-86.8 86.9z"  horiz-adv-x="1024" />

    
    <glyph glyph-name="close-circle" unicode="&#59265;" d="M685.4 541.2c0 4.4-3.6 8-8 8l-66-0.3L512 430.4l-99.3 118.4-66.1 0.3c-4.4 0-8-3.5-8-8 0-1.9 0.7-3.7 1.9-5.2l130.1-155L340.5 226c-1.2-1.5-1.9-3.3-1.9-5.2 0-4.4 3.6-8 8-8l66.1 0.3L512 331.6l99.3-118.4 66-0.3c4.4 0 8 3.5 8 8 0 1.9-0.7 3.7-1.9 5.2L553.5 381l130.1 155c1.2 1.4 1.8 3.3 1.8 5.2zM512 831C264.6 831 64 630.4 64 383s200.6-448 448-448 448 200.6 448 448S759.4 831 512 831z m0-820c-205.4 0-372 166.6-372 372s166.6 372 372 372 372-166.6 372-372-166.6-372-372-372z"  horiz-adv-x="1024" />

    
    <glyph glyph-name="frown" unicode="&#59266;" d="M336 475m-48 0a48 48 0 1 1 96 0 48 48 0 1 1-96 0ZM688 475m-48 0a48 48 0 1 1 96 0 48 48 0 1 1-96 0ZM512 832C264.6 832 64 631.4 64 384s200.6-448 448-448 448 200.6 448 448S759.4 832 512 832z m263-711c-34.2-34.2-74-61-118.3-79.8C611 21.8 562.3 12 512 12c-50.3 0-99 9.8-144.8 29.2-44.3 18.7-84.1 45.6-118.3 79.8-34.2 34.2-61 74-79.8 118.3C149.8 285 140 333.7 140 384s9.8 99 29.2 144.8c18.7 44.3 45.6 84.1 79.8 118.3 34.2 34.2 74 61 118.3 79.8C413 746.2 461.7 756 512 756c50.3 0 99-9.8 144.8-29.2 44.3-18.7 84.1-45.6 118.3-79.8 34.2-34.2 61-74 79.8-118.3C874.2 483 884 434.3 884 384s-9.8-99-29.2-144.8c-18.7-44.3-45.6-84.1-79.8-118.2zM512 363c-85.5 0-155.6-67.3-160-151.6-0.2-4.6 3.4-8.4 8-8.4h48.1c4.2 0 7.8 3.2 8.1 7.4C420 259.9 461.5 299 512 299s92.1-39.1 95.8-88.6c0.3-4.2 3.9-7.4 8.1-7.4H664c4.6 0 8.2 3.8 8 8.4-4.4 84.3-74.5 151.6-160 151.6z"  horiz-adv-x="1024" />

    
    <glyph glyph-name="info-circle" unicode="&#59267;" d="M512 832C264.6 832 64 631.4 64 384s200.6-448 448-448 448 200.6 448 448S759.4 832 512 832z m0-820c-205.4 0-372 166.6-372 372s166.6 372 372 372 372-166.6 372-372-166.6-372-372-372zM512 560m-48 0a48 48 0 1 1 96 0 48 48 0 1 1-96 0ZM536 448h-48c-4.4 0-8-3.6-8-8v-272c0-4.4 3.6-8 8-8h48c4.4 0 8 3.6 8 8V440c0 4.4-3.6 8-8 8z"  horiz-adv-x="1024" />

    
    <glyph glyph-name="left-circle" unicode="&#59268;" d="M603.3 568.5l-246-178c-4.4-3.2-4.4-9.7 0-12.9l246-178c5.3-3.8 12.7 0 12.7 6.5V253c0 10.2-4.9 19.9-13.2 25.9L457.4 384l145.4 105.2c8.3 6 13.2 15.6 13.2 25.9V562c0 6.5-7.4 10.3-12.7 6.5zM512 832C264.6 832 64 631.4 64 384s200.6-448 448-448 448 200.6 448 448S759.4 832 512 832z m0-820c-205.4 0-372 166.6-372 372s166.6 372 372 372 372-166.6 372-372-166.6-372-372-372z"  horiz-adv-x="1024" />

    
    <glyph glyph-name="down-circle" unicode="&#59269;" d="M690 491h-46.9c-10.2 0-19.9-4.9-25.9-13.2L512 332.4 406.8 477.8c-6 8.3-15.6 13.2-25.9 13.2H334c-6.5 0-10.3-7.4-6.5-12.7l178-246c3.2-4.4 9.7-4.4 12.9 0l178 246c3.9 5.3 0.1 12.7-6.4 12.7zM512 832C264.6 832 64 631.4 64 384s200.6-448 448-448 448 200.6 448 448S759.4 832 512 832z m0-820c-205.4 0-372 166.6-372 372s166.6 372 372 372 372-166.6 372-372-166.6-372-372-372z"  horiz-adv-x="1024" />

    
    <glyph glyph-name="EURO" unicode="&#59270;" d="M512 832C264.6 832 64 631.4 64 384s200.6-448 448-448 448 200.6 448 448S759.4 832 512 832z m0-820c-205.4 0-372 166.6-372 372s166.6 372 372 372 372-166.6 372-372-166.6-372-372-372zM629.7 600.6c-15.9 3.5-34.4 5.4-55.3 5.4-106.7 0-178.9-55.7-198.6-149.9H344c-4.4 0-8-3.6-8-8v-27.2c0-4.4 3.6-8 8-8h26.4c-0.3-4.1-0.3-8.4-0.3-12.8v-36.9H344c-4.4 0-8-3.6-8-8V328c0-4.4 3.6-8 8-8h30.2c17.2-99.2 90.4-158 200.2-158 20.9 0 39.4 1.7 55.3 5.1 3.7 0.8 6.4 4 6.4 7.8v42.8c0 5-4.6 8.8-9.5 7.8-14.7-2.8-31.9-4.1-51.8-4.1-68.5 0-114.5 36.6-129.8 98.6h130.6c4.4 0 8 3.6 8 8v27.2c0 4.4-3.6 8-8 8H439.2v36c0 4.7 0 9.4 0.3 13.8h135.9c4.4 0 8 3.6 8 8v27.2c0 4.4-3.6 8-8 8H447.1c17.2 56.9 62.3 90.4 127.6 90.4 19.9 0 37.1-1.5 51.7-4.4 5-1 9.6 2.8 9.6 7.8v42.8c0 3.8-2.6 7-6.3 7.8z"  horiz-adv-x="1024" />

    
    <glyph glyph-name="copyright" unicode="&#59271;" d="M512 832C264.6 832 64 631.4 64 384s200.6-448 448-448 448 200.6 448 448S759.4 832 512 832z m0-820c-205.4 0-372 166.6-372 372s166.6 372 372 372 372-166.6 372-372-166.6-372-372-372zM517.6 544.7c53 0 89-33.8 93-83.4 0.3-4.2 3.8-7.4 8-7.4h56.7c2.6 0 4.7 2.1 4.7 4.7 0 86.7-68.4 147.4-162.7 147.4C407.4 606 344 531.8 344 409.2v-52.3C344 235.2 407.4 162 517.3 162c94 0 162.7 58.8 162.7 141.4 0 2.6-2.1 4.7-4.7 4.7h-56.8c-4.2 0-7.6-3.2-8-7.3-4.2-46.1-40.1-77.8-93-77.8-65.3 0-102.1 47.9-102.1 133.6v52.6c0.1 87 37 135.5 102.2 135.5z"  horiz-adv-x="1024" />

    
    <glyph glyph-name="minus-circle" unicode="&#59272;" d="M696 416H328c-4.4 0-8-3.6-8-8v-48c0-4.4 3.6-8 8-8h368c4.4 0 8 3.6 8 8v48c0 4.4-3.6 8-8 8zM512 832C264.6 832 64 631.4 64 384s200.6-448 448-448 448 200.6 448 448S759.4 832 512 832z m0-820c-205.4 0-372 166.6-372 372s166.6 372 372 372 372-166.6 372-372-166.6-372-372-372z"  horiz-adv-x="1024" />

    
    <glyph glyph-name="meh" unicode="&#59273;" d="M336 475m-48 0a48 48 0 1 1 96 0 48 48 0 1 1-96 0ZM688 475m-48 0a48 48 0 1 1 96 0 48 48 0 1 1-96 0ZM512 832C264.6 832 64 631.4 64 384s200.6-448 448-448 448 200.6 448 448S759.4 832 512 832z m263-711c-34.2-34.2-74-61-118.3-79.8C611 21.8 562.3 12 512 12c-50.3 0-99 9.8-144.8 29.2-44.3 18.7-84.1 45.6-118.3 79.8-34.2 34.2-61 74-79.8 118.3C149.8 285 140 333.7 140 384s9.8 99 29.2 144.8c18.7 44.3 45.6 84.1 79.8 118.3 34.2 34.2 74 61 118.3 79.8C413 746.2 461.7 756 512 756c50.3 0 99-9.8 144.8-29.2 44.3-18.7 84.1-45.6 118.3-79.8 34.2-34.2 61-74 79.8-118.3C874.2 483 884 434.3 884 384s-9.8-99-29.2-144.8c-18.7-44.3-45.6-84.1-79.8-118.2zM664 331H360c-4.4 0-8-3.6-8-8v-48c0-4.4 3.6-8 8-8h304c4.4 0 8 3.6 8 8v48c0 4.4-3.6 8-8 8z"  horiz-adv-x="1024" />

    
    <glyph glyph-name="plus-circle" unicode="&#59274;" d="M696 416H544V568c0 4.4-3.6 8-8 8h-48c-4.4 0-8-3.6-8-8v-152H328c-4.4 0-8-3.6-8-8v-48c0-4.4 3.6-8 8-8h152v-152c0-4.4 3.6-8 8-8h48c4.4 0 8 3.6 8 8V352h152c4.4 0 8 3.6 8 8v48c0 4.4-3.6 8-8 8zM512 832C264.6 832 64 631.4 64 384s200.6-448 448-448 448 200.6 448 448S759.4 832 512 832z m0-820c-205.4 0-372 166.6-372 372s166.6 372 372 372 372-166.6 372-372-166.6-372-372-372z"  horiz-adv-x="1024" />

    
    <glyph glyph-name="play-circle" unicode="&#59275;" d="M512 832C264.6 832 64 631.4 64 384s200.6-448 448-448 448 200.6 448 448S759.4 832 512 832z m0-820c-205.4 0-372 166.6-372 372s166.6 372 372 372 372-166.6 372-372-166.6-372-372-372zM719.4 396.9l-296.1 215c-10.6 7.7-25.3 0.2-25.3-12.9v-430c0-13.1 14.8-20.5 25.3-12.9l296.1 215c8.8 6.4 8.8 19.4 0 25.8z m-257.6-134V505.1L628.5 384 461.8 262.9z"  horiz-adv-x="1024" />

    
    <glyph glyph-name="question-circle" unicode="&#59276;" d="M512 832C264.6 832 64 631.4 64 384s200.6-448 448-448 448 200.6 448 448S759.4 832 512 832z m0-820c-205.4 0-372 166.6-372 372s166.6 372 372 372 372-166.6 372-372-166.6-372-372-372zM623.6 579.3C593.6 605.6 554 620 512 620s-81.6-14.5-111.6-40.7C369.2 552 352 515.3 352 476v-7.6c0-4.4 3.6-8 8-8h48c4.4 0 8 3.6 8 8V476c0 44.1 43.1 80 96 80s96-35.9 96-80c0-31.1-22-59.6-56.1-72.7-21.2-8.1-39.2-22.3-52.1-40.9-13.1-19-19.9-41.8-19.9-64.9V276c0-4.4 3.6-8 8-8h48c4.4 0 8 3.6 8 8v22.7c0 19.7 12.4 37.7 30.9 44.8 59 22.7 97.1 74.7 97.1 132.5 0.1 39.3-17.1 76-48.3 103.3zM512 164m-40 0a40 40 0 1 1 80 0 40 40 0 1 1-80 0Z"  horiz-adv-x="1024" />

    
    <glyph glyph-name="Pound" unicode="&#59277;" d="M512 832C264.6 832 64 631.4 64 384s200.6-448 448-448 448 200.6 448 448S759.4 832 512 832z m0-820c-205.4 0-372 166.6-372 372s166.6 372 372 372 372-166.6 372-372-166.6-372-372-372zM650 221.8H469.8v4.7c27.4 17.2 43.9 50.4 43.9 91.1 0 14.1-2.2 27.9-5.3 41H607c4.4 0 8 3.6 8 8v30c0 4.4-3.6 8-8 8H495c-7.2 22.6-13.4 45.7-13.4 70.5 0 43.5 34 70.2 87.3 70.2 21.5 0 42.5-4.1 60.4-10.5 5.2-1.9 10.6 2 10.6 7.6v39.5c0 3.3-2.1 6.3-5.2 7.5-18.8 7.2-43.8 12.7-70.3 12.7-92.9 0-151.5-44.5-151.5-120.3 0-26.3 6.9-52 14.6-77.1H374c-4.4 0-8-3.6-8-8v-30c0-4.4 3.6-8 8-8h67.1c3.4-14.7 5.9-29.4 5.9-44.2 0-45.2-28.8-83.3-72.8-94.2-3.6-0.9-6.1-4.1-6.1-7.8V174c0-4.4 3.6-8 8-8H650c4.4 0 8 3.6 8 8v39.8c0 4.4-3.6 8-8 8z"  horiz-adv-x="1024" />

    
    <glyph glyph-name="right-circle" unicode="&#59278;" d="M666.7 390.5l-246 178c-5.3 3.8-12.7 0.1-12.7-6.5v-46.9c0-10.2 4.9-19.9 13.2-25.9L566.6 384 421.2 278.79999999999995c-8.3-6-13.2-15.6-13.2-25.9V206c0-6.5 7.4-10.3 12.7-6.5l246 178c4.4 3.2 4.4 9.8 0 13zM512 832C264.6 832 64 631.4 64 384s200.6-448 448-448 448 200.6 448 448S759.4 832 512 832z m0-820c-205.4 0-372 166.6-372 372s166.6 372 372 372 372-166.6 372-372-166.6-372-372-372z"  horiz-adv-x="1024" />

    
    <glyph glyph-name="smile" unicode="&#59279;" d="M336 475m-48 0a48 48 0 1 1 96 0 48 48 0 1 1-96 0ZM688 475m-48 0a48 48 0 1 1 96 0 48 48 0 1 1-96 0ZM512 832C264.6 832 64 631.4 64 384s200.6-448 448-448 448 200.6 448 448S759.4 832 512 832z m263-711c-34.2-34.2-74-61-118.3-79.8C611 21.8 562.3 12 512 12c-50.3 0-99 9.8-144.8 29.2-44.3 18.7-84.1 45.6-118.3 79.8-34.2 34.2-61 74-79.8 118.3C149.8 285 140 333.7 140 384s9.8 99 29.2 144.8c18.7 44.3 45.6 84.1 79.8 118.3 34.2 34.2 74 61 118.3 79.8C413 746.2 461.7 756 512 756c50.3 0 99-9.8 144.8-29.2 44.3-18.7 84.1-45.6 118.3-79.8 34.2-34.2 61-74 79.8-118.3C874.2 483 884 434.3 884 384s-9.8-99-29.2-144.8c-18.7-44.3-45.6-84.1-79.8-118.2zM664 363h-48.1c-4.2 0-7.8-3.2-8.1-7.4C604 306.1 562.5 267 512 267s-92.1 39.1-95.8 88.6c-0.3 4.2-3.9 7.4-8.1 7.4H360c-4.6 0-8.2-3.8-8-8.4 4.4-84.3 74.5-151.6 160-151.6s155.6 67.3 160 151.6c0.2 4.6-3.4 8.4-8 8.4z"  horiz-adv-x="1024" />

    
    <glyph glyph-name="trademark" unicode="&#59280;" d="M512 832C264.6 832 64 631.4 64 384s200.6-448 448-448 448 200.6 448 448S759.4 832 512 832z m0-820c-205.4 0-372 166.6-372 372s166.6 372 372 372 372-166.6 372-372-166.6-372-372-372zM599.5 346.7c34.8 12.8 78.4 49 78.4 119.2 0 71.2-45.5 131.1-144.2 131.1H378c-4.4 0-8-3.6-8-8v-410c0-4.4 3.6-8 8-8h54.5c4.4 0 8 3.6 8 8V334.8h88.7l74.6-159.2c1.3-2.8 4.1-4.6 7.2-4.6h62c1.2 0 2.4 0.3 3.5 0.8 4 2 5.6 6.7 3.6 10.7l-80.6 164.2zM522 391h-81.5V539h83.4c48 0 80.9-25.3 80.9-75.5 0-46.9-29.8-72.5-82.8-72.5z"  horiz-adv-x="1024" />

    
    <glyph glyph-name="time-circle" unicode="&#59281;" d="M512 832C264.6 832 64 631.4 64 384s200.6-448 448-448 448 200.6 448 448S759.4 832 512 832z m0-820c-205.4 0-372 166.6-372 372s166.6 372 372 372 372-166.6 372-372-166.6-372-372-372zM686.7 257.4L544.1 360.5V608c0 4.4-3.6 8-8 8H488c-4.4 0-8-3.6-8-8v-275.4c0-2.6 1.2-5 3.3-6.5l165.4-120.6c3.6-2.6 8.6-1.8 11.2 1.7l28.6 39c2.6 3.7 1.8 8.7-1.8 11.2z"  horiz-adv-x="1024" />

    
    <glyph glyph-name="timeout" unicode="&#59282;" d="M512 832C264.6 832 64 631.4 64 384s200.6-448 448-448 448 200.6 448 448S759.4 832 512 832z m0-820c-205.4 0-372 166.6-372 372s166.6 372 372 372 372-166.6 372-372-166.6-372-372-372zM424 544h-48c-4.4 0-8-3.6-8-8v-304c0-4.4 3.6-8 8-8h48c4.4 0 8 3.6 8 8V536c0 4.4-3.6 8-8 8zM648 544h-48c-4.4 0-8-3.6-8-8v-304c0-4.4 3.6-8 8-8h48c4.4 0 8 3.6 8 8V536c0 4.4-3.6 8-8 8z"  horiz-adv-x="1024" />

    
    <glyph glyph-name="earth" unicode="&#59283;" d="M854.4 95.1c0.2 0.3 0.5 0.6 0.7 0.9C920.6 173.9 960 274.3 960 384s-39.4 210.1-104.8 288c-0.2 0.3-0.5 0.5-0.7 0.8-1.1 1.3-2.1 2.5-3.2 3.7-0.4 0.5-0.8 0.9-1.2 1.4-1.4 1.6-2.7 3.1-4.1 4.7l-0.1 0.1c-1.5 1.7-3.1 3.4-4.6 5.1l-0.1 0.1c-3.2 3.4-6.4 6.8-9.7 10.1l-0.1 0.1-4.8 4.8-0.3 0.3c-1.5 1.5-3 2.9-4.5 4.3-0.5 0.5-1 1-1.6 1.5-1 1-2 1.9-3 2.8-0.3 0.3-0.7 0.6-1 1C736.4 786.8 629.5 832 512 832s-224.4-45.2-304.3-119.2c-0.3-0.3-0.7-0.6-1-1-1-0.9-2-1.9-3-2.9-0.5-0.5-1-1-1.6-1.5-1.5-1.4-3-2.9-4.5-4.3l-0.3-0.3-4.8-4.8-0.1-0.1c-3.3-3.3-6.5-6.7-9.7-10.1l-0.1-0.1c-1.6-1.7-3.1-3.4-4.6-5.1l-0.1-0.1c-1.4-1.5-2.8-3.1-4.1-4.7-0.4-0.5-0.8-0.9-1.2-1.4-1.1-1.2-2.1-2.5-3.2-3.7-0.2-0.3-0.5-0.5-0.7-0.8C103.4 594.1 64 493.7 64 384s39.4-210.1 104.8-288c0.2-0.3 0.5-0.6 0.7-0.9 1-1.2 2.1-2.5 3.1-3.7 0.4-0.5 0.8-0.9 1.2-1.4 1.4-1.6 2.7-3.1 4.1-4.7 0-0.1 0.1-0.1 0.1-0.2 1.5-1.7 3-3.4 4.6-5l0.1-0.1c3.2-3.4 6.4-6.8 9.6-10.1l0.1-0.1c1.6-1.6 3.1-3.2 4.7-4.7l0.3-0.3c3.3-3.3 6.7-6.5 10.1-9.6 80.1-74 187-119.2 304.5-119.2s224.4 45.2 304.3 119.2c3.4 3.1 6.7 6.3 10 9.6l0.3 0.3c1.6 1.6 3.2 3.1 4.7 4.7l0.1 0.1c3.3 3.3 6.5 6.7 9.6 10.1l0.1 0.1c1.5 1.7 3.1 3.3 4.6 5 0 0.1 0.1 0.1 0.1 0.2 1.4 1.5 2.8 3.1 4.1 4.7 0.4 0.5 0.8 0.9 1.2 1.4 1.2 1.3 2.3 2.5 3.3 3.7z m4.1 142.6c-13.8-32.6-32-62.8-54.2-90.2-24.9 21.5-52.2 40.3-81.5 55.9 11.6 46.9 18.8 98.4 20.7 152.6H887c-3-40.9-12.6-80.6-28.5-118.3zM887 412H743.5c-1.9 54.2-9.1 105.7-20.7 152.6 29.3 15.6 56.6 34.4 81.5 55.9 22.2-27.4 40.4-57.6 54.2-90.2C874.4 492.6 884 452.9 887 412zM658.3 730.5c39.7-16.8 75.8-40 107.6-69.2-18.5-15.8-38.4-29.7-59.4-41.8-15.7 45-35.8 84.1-59.2 115.4 3.7-1.4 7.4-2.9 11-4.4z m-90.6-700.6c-9.2-7.2-18.4-12.7-27.7-16.4V199c39.9-2.8 78.6-11.6 115.7-26.2-8.3-24.6-17.9-47.3-29-67.8-17.4-32.4-37.8-58.3-59-75.1z m59 633.1c11-20.6 20.7-43.3 29-67.8-37.1-14.6-75.8-23.4-115.7-26.2V754.4c9.2-3.7 18.5-9.1 27.7-16.4 21.2-16.7 41.6-42.6 59-75zM540 255.1V356h147.5c-1.6-44.2-7.1-87.1-16.3-127.8l-0.3-1.2c-41.1 15.6-85.1 25.3-130.9 28.1z m0 156.9V512.9c45.8 2.8 89.8 12.5 130.9 28.1l0.3-1.2c9.2-40.7 14.7-83.5 16.3-127.8H540z m-56-56v-100.9c-45.8-2.8-89.8-12.5-130.9-28.1l-0.3 1.2c-9.2 40.7-14.7 83.5-16.3 127.8H484z m-147.5 56c1.6 44.2 7.1 87.1 16.3 127.8l0.3 1.2c41.1-15.6 85-25.3 130.9-28.1V412H336.5zM484 199v-185.4c-9.2 3.7-18.5 9.1-27.7 16.4-21.2 16.7-41.7 42.7-59.1 75.1-11 20.6-20.7 43.3-29 67.8 37.2 14.6 75.9 23.3 115.8 26.1z m0 370c-39.9 2.8-78.6 11.6-115.7 26.2 8.3 24.6 17.9 47.3 29 67.8 17.4 32.4 37.8 58.4 59.1 75.1 9.2 7.2 18.4 12.7 27.7 16.4V569zM365.7 730.5c3.7 1.5 7.3 3 11 4.4-23.4-31.3-43.5-70.4-59.2-115.4-21 12-40.9 26-59.4 41.8 31.8 29.2 67.9 52.4 107.6 69.2zM165.5 530.3c13.8 32.6 32 62.8 54.2 90.2 24.9-21.5 52.2-40.3 81.5-55.9-11.6-46.9-18.8-98.4-20.7-152.6H137c3 40.9 12.6 80.6 28.5 118.3zM137 356h143.5c1.9-54.2 9.1-105.7 20.7-152.6-29.3-15.6-56.6-34.4-81.5-55.9-22.2 27.4-40.4 57.6-54.2 90.2C149.6 275.4 140 315.1 137 356z m228.7-318.5c-39.7 16.8-75.8 40-107.6 69.2 18.5 15.8 38.4 29.7 59.4 41.8 15.7-45 35.8-84.1 59.2-115.4-3.7 1.4-7.4 2.9-11 4.4z m292.6 0c-3.7-1.5-7.3-3-11-4.4 23.4 31.3 43.5 70.4 59.2 115.4 21-12 40.9-26 59.4-41.8-31.8-29.2-67.9-52.4-107.6-69.2z"  horiz-adv-x="1024" />

    
    <glyph glyph-name="YUAN" unicode="&#59284;" d="M512 832C264.6 832 64 631.4 64 384s200.6-448 448-448 448 200.6 448 448S759.4 832 512 832z m0-820c-205.4 0-372 166.6-372 372s166.6 372 372 372 372-166.6 372-372-166.6-372-372-372zM671.6 597h-59.5c-3 0-5.8-1.7-7.1-4.4l-90.6-180H511l-90.6 180c-1.4 2.7-4.1 4.4-7.1 4.4h-60.7c-1.3 0-2.6-0.3-3.8-1-3.9-2.1-5.3-7-3.2-10.9L457 380.3h-61.4c-4.4 0-8-3.6-8-8v-29.9c0-4.4 3.6-8 8-8h81.7V293h-81.7c-4.4 0-8-3.6-8-8v-29.9c0-4.4 3.6-8 8-8h81.7V179c0-4.4 3.6-8 8-8h54.3c4.4 0 8 3.6 8 8v68.1h82c4.4 0 8 3.6 8 8V285c0 4.4-3.6 8-8 8h-82v41.5h82c4.4 0 8 3.6 8 8v29.9c0 4.4-3.6 8-8 8h-62l111.1 204.8c0.6 1.2 1 2.5 1 3.8-0.1 4.4-3.7 8-8.1 8z"  horiz-adv-x="1024" />

    
    <glyph glyph-name="up-circle" unicode="&#59285;" d="M518.5 535.7c-3.2 4.4-9.7 4.4-12.9 0l-178-246c-3.8-5.3 0-12.7 6.5-12.7H381c10.2 0 19.9 4.9 25.9 13.2L512 435.6l105.2-145.4c6-8.3 15.6-13.2 25.9-13.2H690c6.5 0 10.3 7.4 6.5 12.7l-178 246zM512 832C264.6 832 64 631.4 64 384s200.6-448 448-448 448 200.6 448 448S759.4 832 512 832z m0-820c-205.4 0-372 166.6-372 372s166.6 372 372 372 372-166.6 372-372-166.6-372-372-372z"  horiz-adv-x="1024" />

    
    <glyph glyph-name="warning-circle" unicode="&#59286;" d="M512 832C264.6 832 64 631.4 64 384s200.6-448 448-448 448 200.6 448 448S759.4 832 512 832z m0-820c-205.4 0-372 166.6-372 372s166.6 372 372 372 372-166.6 372-372-166.6-372-372-372zM512 208m-48 0a48 48 0 1 1 96 0 48 48 0 1 1-96 0ZM488 320h48c4.4 0 8 3.6 8 8V600c0 4.4-3.6 8-8 8h-48c-4.4 0-8-3.6-8-8v-272c0-4.4 3.6-8 8-8z"  horiz-adv-x="1024" />

    
    <glyph glyph-name="sync" unicode="&#59287;" d="M168 391.8c1 43.7 10 86.1 26.9 126 17.3 41 42.1 77.7 73.7 109.4S337 683.7 378 701c42.4 17.9 87.4 27 133.9 27s91.5-9.1 133.8-27c40.9-17.3 77.7-42.1 109.3-73.8 9.9-9.9 19.2-20.4 27.8-31.4l-60.2-47c-5.3-4.1-3.5-12.5 3-14.1l175.7-43c5-1.2 9.9 2.6 9.9 7.7l0.8 180.9c0 6.7-7.7 10.5-12.9 6.3l-56.4-44.1C765.8 740.9 646.2 804 511.8 804 282.7 804 96.3 620.4 92 392.2c-0.1-4.5 3.5-8.2 8-8.2h60c4.4 0 7.9 3.5 8 7.8zM924 384h-60c-4.4 0-7.9-3.5-8-7.8-1-43.7-10-86.1-26.9-126-17.3-41-42.1-77.8-73.7-109.4S687 84.3 646 67c-42.4-17.9-87.4-27-133.9-27s-91.5 9.1-133.9 27c-40.9 17.3-77.7 42.1-109.3 73.8-9.9 9.9-19.2 20.4-27.8 31.4l60.2 47c5.3 4.1 3.5 12.5-3 14.1l-175.7 43c-5 1.2-9.9-2.6-9.9-7.7l-0.7-181c0-6.7 7.7-10.5 12.9-6.3l56.4 44.1C258.2 27.1 377.8-36 512.2-36c229.2 0 415.5 183.7 419.8 411.8 0.1 4.5-3.5 8.2-8 8.2z"  horiz-adv-x="1024" />

    
    <glyph glyph-name="transaction" unicode="&#59288;" d="M668.6 576c0 4.4-3.6 8-8 8h-54.5c-3 0-5.8-1.7-7.1-4.4l-84.7-168.8H511l-84.7 168.8c-1.4 2.7-4.1 4.4-7.1 4.4h-55.7c-1.3 0-2.6-0.3-3.8-1-3.9-2.1-5.3-7-3.2-10.8l103.9-191.6h-57c-4.4 0-8-3.6-8-8v-27.1c0-4.4 3.6-8 8-8h76v-39h-76c-4.4 0-8-3.6-8-8v-27.1c0-4.4 3.6-8 8-8h76V192c0-4.4 3.6-8 8-8h49.9c4.4 0 8 3.6 8 8v63.5h76.3c4.4 0 8 3.6 8 8v27.1c0 4.4-3.6 8-8 8h-76.3v39h76.3c4.4 0 8 3.6 8 8v27.1c0 4.4-3.6 8-8 8H564l103.7 191.6c0.5 1.1 0.9 2.4 0.9 3.7zM157.9 391.8c1 45.1 10.3 88.7 27.7 129.9 17.8 42.1 43.3 80 75.8 112.5s70.3 58.1 112.4 75.9c43.6 18.4 89.9 27.8 137.6 27.8 47.8 0 94.1-9.3 137.6-27.8 42.1-17.8 79.9-43.4 112.4-75.9 10-10 19.3-20.5 27.9-31.4l-50-39.1c-5.3-4.1-3.5-12.5 3-14.1l156.8-38.3c5-1.2 9.9 2.6 9.9 7.7l0.8 161.5c0 6.7-7.7 10.5-12.9 6.3l-47.8-37.4C770.7 749.7 648.6 814 511.5 814 277 814 86.3 625.9 82 392.2c-0.1-4.5 3.5-8.2 8-8.2h60c4.3 0 7.8 3.5 7.9 7.8zM934 384h-60c-4.3 0-7.9-3.5-8-7.8-1-45.1-10.3-88.7-27.7-129.9-17.8-42.1-43.3-80-75.8-112.5s-70.3-58.1-112.4-75.9c-43.6-18.4-89.9-27.8-137.6-27.8s-94.1 9.3-137.6 27.8c-42.1 17.8-79.9 43.4-112.4 75.9-10 10-19.3 20.5-27.9 31.4l49.9 39.1c5.3 4.1 3.5 12.5-3 14.1l-156.8 38.3c-5 1.2-9.9-2.6-9.9-7.7l-0.8-161.7c0-6.7 7.7-10.5 12.9-6.3l47.8 37.4C253.3 18.3 375.4-46 512.5-46 747-46 937.7 142.1 942 375.8c0.1 4.5-3.5 8.2-8 8.2z"  horiz-adv-x="1024" />

    
    <glyph glyph-name="undo" unicode="&#59289;" d="M511.4 772C290.5 771.7 112 593 112 372.1c0-128 60.2-242 153.8-315.2l-37.5-48c-4.1-5.3-0.3-13 6.3-12.9l167 0.8c5.2 0 9 4.9 7.7 9.9L369.8 169c-1.6 6.5-10 8.3-14.1 3L315 119.9c-10.2 8-20 16.7-29.3 26-29.4 29.4-52.5 63.6-68.6 101.7C200.4 287 192 328.9 192 372.1s8.4 85.1 25.1 124.5c16.1 38.1 39.2 72.3 68.6 101.7 29.4 29.4 63.6 52.5 101.7 68.6C426.9 683.6 468.8 692 512 692s85.1-8.4 124.5-25.1c38.1-16.1 72.3-39.2 101.7-68.6 29.4-29.4 52.5-63.6 68.6-101.7 16.7-39.4 25.1-81.3 25.1-124.5s-8.4-85.1-25.1-124.5c-16.1-38.1-39.2-72.3-68.6-101.7-7.5-7.5-15.3-14.5-23.4-21.2-3.4-2.8-3.9-7.7-1.2-11.1l39.4-50.5c2.8-3.5 7.9-4.1 11.4-1.3C854.5 135.2 912 246.9 912 372.1c0 221.1-179.4 400.2-400.6 399.9z"  horiz-adv-x="1024" />

    
    <glyph glyph-name="redo" unicode="&#59290;" d="M758.2 56.9C851.8 130.1 912 244.1 912 372.1 912 593 733.5 771.7 512.6 772 291.4 772.3 112 593.2 112 372.1c0-125.2 57.5-236.9 147.6-310.2 3.5-2.8 8.6-2.2 11.4 1.3l39.4 50.5c2.7 3.4 2.1 8.3-1.2 11.1-8.1 6.6-15.9 13.7-23.4 21.2-29.4 29.4-52.5 63.6-68.6 101.7C200.4 287 192 328.9 192 372.1s8.4 85.1 25.1 124.5c16.1 38.1 39.2 72.3 68.6 101.7 29.4 29.4 63.6 52.5 101.7 68.6C426.9 683.6 468.8 692 512 692s85.1-8.4 124.5-25.1c38.1-16.1 72.3-39.2 101.7-68.6 29.4-29.4 52.5-63.6 68.6-101.7 16.7-39.4 25.1-81.3 25.1-124.5s-8.4-85.1-25.1-124.5c-16.1-38.1-39.2-72.3-68.6-101.7-9.3-9.3-19.1-18-29.3-26L668.2 172c-4.1 5.3-12.5 3.5-14.1-3l-39.6-162.2c-1.2-5 2.6-9.9 7.7-9.9l167-0.8c6.7 0 10.5 7.7 6.3 12.9l-37.3 47.9z"  horiz-adv-x="1024" />

    
    <glyph glyph-name="reload" unicode="&#59291;" d="M909.1 686.7l-56.4-44.1C775.8 740.9 656.2 804 521.9 804 290 804 102.3 616.5 102 384.5 101.7 152.3 289.8-36 521.9-36c181.3 0 335.8 115 394.6 276.1 1.5 4.2-0.7 8.9-4.9 10.3l-56.7 19.5c-4.1 1.4-8.6-0.7-10.1-4.8-1.8-5-3.8-10-5.9-14.9-17.3-41-42.1-77.8-73.7-109.4-31.6-31.6-68.4-56.4-109.3-73.8-42.3-17.9-87.4-27-133.8-27-46.5 0-91.5 9.1-133.8 27-40.9 17.3-77.7 42.1-109.3 73.8-31.6 31.6-56.4 68.4-73.7 109.4-17.9 42.4-27 87.4-27 133.9s9.1 91.5 27 133.9c17.3 41 42.1 77.8 73.7 109.4 31.6 31.6 68.4 56.4 109.3 73.8 42.3 17.9 87.4 27 133.8 27 46.5 0 91.5-9.1 133.8-27 40.9-17.3 77.7-42.1 109.3-73.8 9.9-9.9 19.2-20.4 27.8-31.4l-60.2-47c-5.3-4.1-3.5-12.5 3-14.1l175.6-43c5-1.2 9.9 2.6 9.9 7.7l0.8 180.9c-0.1 6.6-7.8 10.3-13 6.2z"  horiz-adv-x="1024" />

    
    <glyph glyph-name="reloadtime" unicode="&#59292;" d="M536.1 623H488c-4.4 0-8-3.6-8-8v-275.3c0-2.6 1.2-5 3.3-6.5l165.3-120.7c3.6-2.6 8.6-1.9 11.2 1.7l28.6 39c2.7 3.7 1.9 8.7-1.7 11.2L544.1 367.5V615c0 4.4-3.6 8-8 8zM755.9 547.8l156.8-38.3c5-1.2 9.9 2.6 9.9 7.7l0.8 161.5c0 6.7-7.7 10.5-12.9 6.3L752.9 561.9c-5.3-4.2-3.5-12.5 3-14.1zM923.6 246.7l-56.7 19.5c-4.1 1.4-8.6-0.7-10.1-4.8-1.9-5.1-3.9-10.1-6-15.1-17.8-42.1-43.3-80-75.9-112.5-32.5-32.5-70.4-58.1-112.5-75.9-43.6-18.4-89.9-27.8-137.7-27.8-47.8 0-94.1 9.3-137.7 27.8-42.1 17.8-80 43.4-112.5 75.9-32.5 32.5-58 70.4-75.9 112.5C180.3 289.8 171 336.2 171 384c0 47.8 9.3 94.2 27.8 137.8 17.8 42.1 43.3 80 75.9 112.5 32.5 32.5 70.4 58.1 112.5 75.9C430.6 728.7 477 738 524.8 738s94.1-9.3 137.7-27.8c42.1-17.8 80-43.4 112.5-75.9 10.2-10.3 19.8-21 28.6-32.3l59.8 46.8C784.7 749.4 662.2 814.1 524.6 814 285 813.9 92.6 619.3 95 379.6 97.4 144.1 288.9-46 524.8-46c185.5 0 343.5 117.6 403.7 282.3 1.5 4.2-0.7 8.9-4.9 10.4z"  horiz-adv-x="1024" />

    
    <glyph glyph-name="message" unicode="&#59293;" d="M512 384m-48 0a48 48 0 1 1 96 0 48 48 0 1 1-96 0ZM712 384m-48 0a48 48 0 1 1 96 0 48 48 0 1 1-96 0ZM312 384m-48 0a48 48 0 1 1 96 0 48 48 0 1 1-96 0ZM925.2 557.6c-22.6 53.7-55 101.9-96.3 143.3-41.3 41.3-89.5 73.8-143.3 96.3C630.6 820.3 572.2 832 512 832h-2c-60.6-0.3-119.3-12.3-174.5-35.9-53.3-22.8-101.1-55.2-142-96.5-40.9-41.3-73-89.3-95.2-142.8-23-55.4-34.6-114.3-34.3-174.9 0.3-69.4 16.9-138.3 48-199.9v-152c0-25.4 20.6-46 46-46h152.1c61.6-31.1 130.5-47.7 199.9-48h2.1c59.9 0 118 11.6 172.7 34.3 53.5 22.3 101.6 54.3 142.8 95.2 41.3 40.9 73.8 88.7 96.5 142 23.6 55.2 35.6 113.9 35.9 174.5 0.3 60.9-11.5 120-34.8 175.6z m-151.1-438C704 50.2 611 12 512 12h-1.7c-60.3 0.3-120.2 15.3-173.1 43.5l-8.4 4.5H188V200.8l-4.5 8.4C155.3 262.1 140.3 322 140 382.3c-0.4 99.7 37.7 193.3 107.6 263.8 69.8 70.5 163.1 109.5 262.8 109.9h1.7c50 0 98.5-9.7 144.2-28.9 44.6-18.7 84.6-45.6 119-80 34.3-34.3 61.3-74.4 80-119 19.4-46.2 29.1-95.2 28.9-145.8-0.6-99.6-39.7-192.9-110.1-262.7z"  horiz-adv-x="1024" />

    
    <glyph glyph-name="dashboard" unicode="&#59294;" d="M924.8 510.4c-22.6 53.4-54.9 101.3-96 142.4-41.1 41.1-89 73.4-142.4 96C631.1 772.2 572.5 784 512 784s-119.1-11.8-174.4-35.2c-53.4-22.6-101.3-54.9-142.4-96-41.1-41.1-73.4-89-96-142.4C75.8 455.1 64 396.5 64 336c0-132.7 58.3-257.7 159.9-343.1l1.7-1.4c5.8-4.8 13.1-7.5 20.6-7.5h531.7c7.5 0 14.8 2.7 20.6 7.5l1.7 1.4C901.7 78.3 960 203.3 960 336c0 60.5-11.9 119.1-35.2 174.4zM761.4 60H262.6C184.5 130.5 140 230.4 140 336c0 99.4 38.7 192.8 109 263 70.3 70.3 163.7 109 263 109 99.4 0 192.8-38.7 263-109 70.3-70.3 109-163.7 109-263 0-105.6-44.5-205.5-122.6-276zM623.5 474.5c-3.1 3.1-8.2 3.1-11.3 0L527.7 390c-18.7 5-39.4 0.2-54.1-14.5-21.9-21.9-21.9-57.3 0-79.2 21.9-21.9 57.3-21.9 79.2 0 14.7 14.7 19.5 35.4 14.5 54.1l84.5 84.5c3.1 3.1 3.1 8.2 0 11.3l-28.3 28.3zM490 576h44c4.4 0 8 3.6 8 8v80c0 4.4-3.6 8-8 8h-44c-4.4 0-8-3.6-8-8v-80c0-4.4 3.6-8 8-8zM750 358v-44c0-4.4 3.6-8 8-8h80c4.4 0 8 3.6 8 8v44c0 4.4-3.6 8-8 8h-80c-4.4 0-8-3.6-8-8zM762.7 555.2l-31.1 31.1c-3.1 3.1-8.2 3.1-11.3 0l-56.6-56.6c-3.1-3.1-3.1-8.2 0-11.3l31.1-31.1c3.1-3.1 8.2-3.1 11.3 0l56.6 56.6c3.1 3.1 3.1 8.2 0 11.3zM304.1 586.3c-3.1 3.1-8.2 3.1-11.3 0l-31.1-31.1c-3.1-3.1-3.1-8.2 0-11.3l56.6-56.6c3.1-3.1 8.2-3.1 11.3 0l31.1 31.1c3.1 3.1 3.1 8.2 0 11.3l-56.6 56.6zM262 366h-80c-4.4 0-8-3.6-8-8v-44c0-4.4 3.6-8 8-8h80c4.4 0 8 3.6 8 8v44c0 4.4-3.6 8-8 8z"  horiz-adv-x="1024" />

    
    <glyph glyph-name="issuesclose" unicode="&#59295;" d="M512 208m-48 0a48 48 0 1 1 96 0 48 48 0 1 1-96 0ZM536 320c4.4 0 8 3.6 8 8V600c0 4.4-3.6 8-8 8h-48c-4.4 0-8-3.6-8-8v-272c0-4.4 3.6-8 8-8h48zM936 508h-59.3c-2.6 0-5-1.2-6.5-3.3L763.7 357.9l-49.9 68.8c-1.5 2.1-3.9 3.3-6.5 3.3H648c-6.5 0-10.3-7.4-6.5-12.7l109.2-150.7c6.4-8.8 19.6-8.8 26 0l165.8 228.7c3.8 5.3 0 12.7-6.5 12.7zM892 202h-64.2c-5.5 0-10.6-2.9-13.6-7.5-14.1-22.4-30.7-43.2-49.8-62.2-32.8-32.7-70.9-58.4-113.3-76.3-43.9-18.5-90.5-27.9-138.7-27.9-48.1 0-94.8 9.4-138.7 27.9-42.4 17.9-80.5 43.6-113.3 76.3-32.8 32.7-58.5 70.8-76.4 113.2-18.6 43.8-28 90.5-28 138.5s9.4 94.7 28 138.5c17.9 42.4 43.6 80.5 76.4 113.2 32.8 32.7 70.9 58.4 113.3 76.3 43.9 18.5 90.5 27.9 138.7 27.9 48.1 0 94.8-9.4 138.7-27.9 42.4-17.9 80.5-43.6 113.3-76.3 19-19 35.6-39.8 49.8-62.2 2.9-4.7 8.1-7.5 13.6-7.5H892c6 0 9.8 6.3 7.2 11.6C828.8 717.5 684.7 814 517.7 816 278.9 818.8 80.5 623.5 80 384.8 79.5 145.9 273.3-48 512.4-48c169.2 0 315.6 97 386.7 238.4 2.7 5.3-1.2 11.6-7.1 11.6z"  horiz-adv-x="1024" />

    
    <glyph glyph-name="poweroff" unicode="&#59296;" d="M705.6 771.1c-5.3 2.7-11.6-1.2-11.6-7.2v-64.2c0-5.5 2.9-10.6 7.5-13.6 22.4-14.1 43.2-30.7 62.2-49.8 32.7-32.8 58.4-70.9 76.3-113.3 18.5-43.9 27.9-90.5 27.9-138.7 0-48.1-9.4-94.8-27.9-138.7-17.9-42.4-43.6-80.5-76.3-113.3-32.7-32.8-70.8-58.5-113.2-76.4-43.8-18.6-90.5-28-138.5-28s-94.7 9.4-138.5 28c-42.4 17.9-80.5 43.6-113.2 76.4-32.7 32.8-58.4 70.9-76.3 113.3-18.5 43.9-27.9 90.5-27.9 138.7 0 48.1 9.4 94.8 27.9 138.7 17.9 42.4 43.6 80.5 76.3 113.3 19 19 39.8 35.6 62.2 49.8 4.7 2.9 7.5 8.1 7.5 13.6V764c0 6-6.3 9.8-11.6 7.2C178.5 700.8 82 556.7 80 389.7 77.2 150.9 272.5-47.5 511.2-48c239-0.5 432.8 193.3 432.8 432.4 0 169.2-97 315.7-238.4 386.7zM480 336h64c4.4 0 8 3.6 8 8V808c0 4.4-3.6 8-8 8h-64c-4.4 0-8-3.6-8-8v-464c0-4.4 3.6-8 8-8z"  horiz-adv-x="1024" />

    
    <glyph glyph-name="logout" unicode="&#59297;" d="M868 164h-70.3c-4.8 0-9.3-2.1-12.3-5.8-7-8.5-14.5-16.7-22.4-24.5-32.6-32.5-70.5-58.1-112.7-75.9-43.6-18.4-90-27.8-137.9-27.8-47.9 0-94.3 9.4-137.9 27.8-42.2 17.8-80.1 43.4-112.7 75.9-32.6 32.5-58.1 70.4-76 112.5C167.3 289.8 158 336.1 158 384s9.4 94.2 27.8 137.8c17.8 42.1 43.4 80 76 112.5s70.5 58.1 112.7 75.9c43.6 18.4 90 27.8 137.9 27.8 47.9 0 94.3-9.3 137.9-27.8 42.2-17.8 80.1-43.4 112.7-75.9 7.9-7.9 15.3-16.1 22.4-24.5 3-3.7 7.6-5.8 12.3-5.8H868c6.3 0 10.2 7 6.7 12.3C798 735.5 663.8 814.4 511.3 814 271.7 813.4 79.6 618.9 82 379.6 84.4 144.1 276.2-46 512.4-46c152.1 0 285.7 78.8 362.3 197.7 3.4 5.3-0.4 12.3-6.7 12.3zM956.9 390.3L815 502.3c-5.3 4.2-13 0.4-13-6.3v-76H488c-4.4 0-8-3.6-8-8v-56c0-4.4 3.6-8 8-8h314v-76c0-6.7 7.8-10.5 13-6.3l141.9 112c4.1 3.2 4.1 9.4 0 12.6z"  horiz-adv-x="1024" />

    
    <glyph glyph-name="login" unicode="&#59298;" d="M512.7 814c-152.5 0.4-286.7-78.5-363.4-197.7-3.4-5.3 0.4-12.3 6.7-12.3h70.3c4.8 0 9.3 2.1 12.3 5.8 7 8.5 14.5 16.7 22.4 24.5 32.6 32.5 70.5 58.1 112.7 75.9 43.6 18.4 90 27.8 137.9 27.8 47.9 0 94.3-9.3 137.9-27.8 42.2-17.8 80.1-43.4 112.7-75.9 32.6-32.5 58.1-70.4 76-112.5C856.7 478.2 866 431.9 866 384s-9.4-94.2-27.8-137.8c-17.8-42.1-43.4-80-76-112.5s-70.5-58.1-112.7-75.9c-43.6-18.4-90-27.8-137.9-27.8-47.9 0-94.3 9.4-137.9 27.8-42.2 17.8-80.1 43.4-112.7 75.9-7.9 7.9-15.3 16.1-22.4 24.5-3 3.7-7.6 5.8-12.3 5.8H156c-6.3 0-10.2-7-6.7-12.3C225.9 32.8 359.5-46 511.6-46c236.2 0 428 190.1 430.4 425.6C944.4 618.9 752.3 813.4 512.7 814zM222 272v76h314c4.4 0 8 3.6 8 8v56c0 4.4-3.6 8-8 8H222v76c0 6.7-7.8 10.5-13 6.3l-141.9-112c-4.1-3.2-4.1-9.4 0-12.6l141.9-112c5.2-4.1 13-0.4 13 6.3z"  horiz-adv-x="1024" />

    
    <glyph glyph-name="piechart" unicode="&#59299;" d="M864 378H506V736c0 4.4-3.6 8-8 8h-26c-54 0-106.4-10.6-155.7-31.4-47.6-20.1-90.4-49-127.1-85.7-36.7-36.7-65.6-79.5-85.7-127.1C82.6 450.4 72 398 72 344c0-54 10.6-106.4 31.4-155.7 20.1-47.6 49-90.4 85.7-127.1 36.7-36.7 79.5-65.6 127.1-85.7C365.6-45.4 418-56 472-56c54 0 106.4 10.6 155.7 31.4 47.6 20.1 90.4 49 127.1 85.7 36.7 36.7 65.6 79.5 85.7 127.1C861.4 237.6 872 290 872 344v26c0 4.4-3.6 8-8 8zM705.7 108.2c-62.6-62.1-147.1-96.6-235.3-96.2-88.1 0.4-170.9 34.9-233.2 97.2C174.5 171.9 140 255.3 140 344c0 88.7 34.5 172.1 97.2 234.8 54.6 54.6 124.9 87.9 200.8 95.5V310h364.3c-7.7-76.3-41.3-147-96.6-201.8zM952 433.6l-2.6 28.2c-8.5 92.1-49.4 179-115.2 244.6-65.8 65.7-152.8 106.5-245.2 115L560.7 824c-4.7 0.4-8.7-3.2-8.7-7.9V432c0-4.4 3.6-8 8-8l384 1c4.7 0 8.4 4 8 8.6z m-332.2 58.2V748.4c62.6-13.1 120.7-44.2 166.4-89.8 45.7-45.6 77-103.6 90-166.1l-256.4-0.7z"  horiz-adv-x="1024" />

    
    <glyph glyph-name="setting" unicode="&#59300;" d="M924.8 270.3l-65.5 56c3.1 19 4.7 38.4 4.7 57.8s-1.6 38.8-4.7 57.8l65.5 56c10.1 8.6 13.8 22.6 9.3 35.2l-0.9 2.6c-18.1 50.5-44.9 96.9-79.7 137.9l-1.8 2.1c-8.6 10.1-22.5 13.9-35.1 9.5l-81.3-28.9c-30 24.6-63.5 44-99.7 57.6l-15.7 85c-2.4 13.1-12.7 23.3-25.8 25.7l-2.7 0.5c-52.1 9.4-106.9 9.4-159 0l-2.7-0.5c-13.1-2.4-23.4-12.6-25.8-25.7l-15.8-85.4c-35.9-13.6-69.2-32.9-99-57.4l-81.9 29.1c-12.5 4.4-26.5 0.7-35.1-9.5l-1.8-2.1c-34.8-41.1-61.6-87.5-79.7-137.9l-0.9-2.6c-4.5-12.5-0.8-26.5 9.3-35.2l66.3-56.6c-3.1-18.8-4.6-38-4.6-57.1 0-19.2 1.5-38.4 4.6-57.1L99 270.5c-10.1-8.6-13.8-22.6-9.3-35.2l0.9-2.6c18.1-50.4 44.9-96.9 79.7-137.9l1.8-2.1c8.6-10.1 22.5-13.9 35.1-9.5l81.9 29.1c29.8-24.5 63.1-43.9 99-57.4l15.8-85.4c2.4-13.1 12.7-23.3 25.8-25.7l2.7-0.5c26.1-4.7 52.8-7.1 79.5-7.1 26.7 0 53.5 2.4 79.5 7.1l2.7 0.5c13.1 2.4 23.4 12.6 25.8 25.7l15.7 85c36.2 13.6 69.7 32.9 99.7 57.6l81.3-28.9c12.5-4.4 26.5-0.7 35.1 9.5l1.8 2.1c34.8 41.1 61.6 87.5 79.7 137.9l0.9 2.6c4.5 12.3 0.8 26.3-9.3 35zM788.3 430.1c2.5-15.1 3.8-30.6 3.8-46.1s-1.3-31-3.8-46.1l-6.6-40.1 74.7-63.9c-11.3-26.1-25.6-50.7-42.6-73.6L721 193.2l-31.4-25.8c-23.9-19.6-50.5-35-79.3-45.8l-38.1-14.3-17.9-97c-28.1-3.2-56.8-3.2-85 0l-17.9 97.2-37.8 14.5c-28.5 10.8-55 26.2-78.7 45.7l-31.4 25.9-93.4-33.2c-17 22.9-31.2 47.6-42.6 73.6l75.5 64.5-6.5 40c-2.4 14.9-3.7 30.3-3.7 45.5 0 15.3 1.2 30.6 3.7 45.5l6.5 40-75.5 64.5c11.3 26.1 25.6 50.7 42.6 73.6l93.4-33.2 31.4 25.9c23.7 19.5 50.2 34.9 78.7 45.7l37.9 14.3 17.9 97.2c28.1 3.2 56.8 3.2 85 0l17.9-97 38.1-14.3c28.7-10.8 55.4-26.2 79.3-45.8l31.4-25.8 92.8 32.9c17-22.9 31.2-47.6 42.6-73.6L781.8 470l6.5-39.9zM512 570c-97.2 0-176-78.8-176-176s78.8-176 176-176 176 78.8 176 176-78.8 176-176 176z m79.2-255.2C570 293.7 541.9 282 512 282c-29.9 0-58 11.7-79.2 32.8C411.7 336 400 364.1 400 394c0 29.9 11.7 58 32.8 79.2C454 494.4 482.1 506 512 506c29.9 0 58-11.6 79.2-32.8C612.3 452 624 423.9 624 394c0-29.9-11.7-58-32.8-79.2z"  horiz-adv-x="1024" />

    
    <glyph glyph-name="eye" unicode="&#59301;" d="M942.2 409.8C847.4 609.5 704.1 710 512 710c-192.2 0-335.4-100.5-430.2-300.3-7.7-16.2-7.7-35.2 0-51.5C176.6 158.5 319.9 58 512 58c192.2 0 335.4 100.5 430.2 300.3 7.7 16.2 7.7 35 0 51.5zM512 130c-161.3 0-279.4 81.8-362.7 254C232.6 556.2 350.7 638 512 638c161.3 0 279.4-81.8 362.7-254C791.5 211.8 673.4 130 512 130zM508 560c-97.2 0-176-78.8-176-176s78.8-176 176-176 176 78.8 176 176-78.8 176-176 176z m0-288c-61.9 0-112 50.1-112 112s50.1 112 112 112 112-50.1 112-112-50.1-112-112-112z"  horiz-adv-x="1024" />

    
    <glyph glyph-name="location" unicode="&#59302;" d="M854.6 606.9c-18.8 43.4-45.7 82.3-79.9 115.7-34.2 33.4-73.9 59.5-118.2 77.8C610.7 819.4 562.1 829 512 829c-50.1 0-98.7-9.6-144.5-28.5-44.3-18.3-84-44.5-118.2-77.8-34.2-33.4-61.1-72.4-79.9-115.7-19.5-45-29.4-92.8-29.4-142 0-70.6 16.9-140.9 50.1-208.7 26.7-54.5 64-107.6 111-158.1 80.3-86.2 164.5-138.9 188.4-153 6.9-4.1 14.7-6.1 22.4-6.1 7.8 0 15.5 2 22.4 6.1 23.9 14.1 108.1 66.8 188.4 153 47 50.4 84.3 103.6 111 158.1C867.1 324 884 394.2 884 464.9c0 49.2-9.9 97-29.4 142zM512 15.8c-65.9 41.9-300 207.8-300 449.1 0 77.9 31.1 151.1 87.6 206.3C356.3 726.5 431.7 757 512 757s155.7-30.5 212.4-85.9C780.9 616 812 542.8 812 464.9c0-241.3-234.1-407.2-300-449.1zM512 633c-97.2 0-176-78.8-176-176s78.8-176 176-176 176 78.8 176 176-78.8 176-176 176z m79.2-255.2C570 356.7 541.9 345 512 345c-29.9 0-58 11.7-79.2 32.8C411.7 399 400 427.1 400 457c0 29.9 11.7 58 32.8 79.2C454 557.4 482.1 569 512 569c29.9 0 58-11.6 79.2-32.8C612.4 515 624 486.9 624 457c0-29.9-11.6-58-32.8-79.2z"  horiz-adv-x="1024" />

    
    <glyph glyph-name="edit-square" unicode="&#59303;" d="M904 384h-56c-4.4 0-8-3.6-8-8v-320H184V712h320c4.4 0 8 3.6 8 8v56c0 4.4-3.6 8-8 8H144c-17.7 0-32-14.3-32-32v-736c0-17.7 14.3-32 32-32h736c17.7 0 32 14.3 32 32V376c0 4.4-3.6 8-8 8zM355.9 361.1L354 242.20000000000005c-0.1-8.9 7.1-16.2 16-16.2h0.4l118 2.9c2 0.1 4 0.9 5.4 2.3l415.9 415c3.1 3.1 3.1 8.2 0 11.3L785.4 781.7c-1.6 1.6-3.6 2.3-5.7 2.3s-4.1-0.8-5.7-2.3l-415.8-415c-1.4-1.5-2.3-3.5-2.3-5.6z m63.5-23.6L779.7 697l45.2-45.1-360.5-359.7-45.7-1.1 0.7 46.4z"  horiz-adv-x="1024" />

    
    <glyph glyph-name="export" unicode="&#59304;" d="M888.3 138.6h-53.8c-4.2 0-7.7-3.5-7.7-7.7v-61.8H197.1V698.9h629.8v-61.8c0-4.2 3.5-7.7 7.7-7.7h53.8c4.2 0 7.7 3.4 7.7 7.7V737.3c0 17-13.7 30.7-30.7 30.7H158.7c-17 0-30.7-13.7-30.7-30.7v-706.6c0-17 13.7-30.7 30.7-30.7h706.6c17 0 30.7 13.7 30.7 30.7V130.9c0 4.3-3.5 7.7-7.7 7.7zM906.9 390.3L765 502.3c-5.3 4.2-13 0.4-13-6.3v-76H438c-4.4 0-8-3.6-8-8v-56c0-4.4 3.6-8 8-8h314v-76c0-6.7 7.8-10.5 13-6.3l141.9 112c4.1 3.2 4.1 9.4 0 12.6z"  horiz-adv-x="1024" />

    
    <glyph glyph-name="save" unicode="&#59305;" d="M893.3 602.7L730.7 765.3c-7.5 7.5-16.7 13-26.7 16V784H144c-17.7 0-32-14.3-32-32v-736c0-17.7 14.3-32 32-32h736c17.7 0 32 14.3 32 32V557.5c0 17-6.7 33.2-18.7 45.2zM384 712h256v-104H384V712z m456-656H184V712h136v-136c0-17.7 14.3-32 32-32h320c17.7 0 32 14.3 32 32V690.2l136-136V56zM512 454c-79.5 0-144-64.5-144-144s64.5-144 144-144 144 64.5 144 144-64.5 144-144 144z m0-224c-44.2 0-80 35.8-80 80s35.8 80 80 80 80-35.8 80-80-35.8-80-80-80z"  horiz-adv-x="1024" />

    
    <glyph glyph-name="Import" unicode="&#59306;" d="M888.3 138.6h-53.8c-4.2 0-7.7-3.5-7.7-7.7v-61.8H197.1V698.9h629.8v-61.8c0-4.2 3.5-7.7 7.7-7.7h53.8c4.2 0 7.7 3.4 7.7 7.7V737.3c0 17-13.7 30.7-30.7 30.7H158.7c-17 0-30.7-13.7-30.7-30.7v-706.6c0-17 13.7-30.7 30.7-30.7h706.6c17 0 30.7 13.7 30.7 30.7V130.9c0 4.3-3.5 7.7-7.7 7.7zM902 420H588v76c0 6.7-7.8 10.5-13 6.3l-141.9-112c-4.1-3.2-4.1-9.4 0-12.6l141.9-112c5.3-4.2 13-0.4 13 6.3v76h314c4.4 0 8 3.6 8 8v56c0 4.4-3.6 8-8 8z"  horiz-adv-x="1024" />

    
    <glyph glyph-name="appstore" unicode="&#59307;" d="M464 752H160c-8.8 0-16-7.2-16-16v-304c0-8.8 7.2-16 16-16h304c8.8 0 16 7.2 16 16V736c0 8.8-7.2 16-16 16z m-52-268H212V684h200v-200zM864 752H560c-8.8 0-16-7.2-16-16v-304c0-8.8 7.2-16 16-16h304c8.8 0 16 7.2 16 16V736c0 8.8-7.2 16-16 16z m-52-268H612V684h200v-200zM464 352H160c-8.8 0-16-7.2-16-16v-304c0-8.8 7.2-16 16-16h304c8.8 0 16 7.2 16 16V336c0 8.8-7.2 16-16 16z m-52-268H212V284h200v-200zM864 352H560c-8.8 0-16-7.2-16-16v-304c0-8.8 7.2-16 16-16h304c8.8 0 16 7.2 16 16V336c0 8.8-7.2 16-16 16z m-52-268H612V284h200v-200z"  horiz-adv-x="1024" />

    
    <glyph glyph-name="close-square" unicode="&#59308;" d="M354 225h58.9c4.7 0 9.2 2.1 12.3 5.7L512 334.20000000000005l86.8-103.5c3-3.6 7.5-5.7 12.3-5.7H670c6.8 0 10.5 7.9 6.1 13.1L553.8 384l122.4 145.9c4.4 5.2 0.7 13.1-6.1 13.1h-58.9c-4.7 0-9.2-2.1-12.3-5.7L512 433.8l-86.8 103.5c-3 3.6-7.5 5.7-12.3 5.7H354c-6.8 0-10.5-7.9-6.1-13.1L470.2 384 347.9 238.10000000000002c-4.4-5.2-0.7-13.1 6.1-13.1zM880 784H144c-17.7 0-32-14.3-32-32v-736c0-17.7 14.3-32 32-32h736c17.7 0 32 14.3 32 32V752c0 17.7-14.3 32-32 32z m-40-728H184V712h656v-656z"  horiz-adv-x="1024" />

    
    <glyph glyph-name="down-square" unicode="&#59309;" d="M505.5 237.29999999999995c3.2-4.4 9.7-4.4 12.9 0l178 246c3.8 5.3 0 12.7-6.5 12.7H643c-10.2 0-19.9-4.9-25.9-13.2L512 337.4 406.8 482.8c-6 8.3-15.6 13.2-25.9 13.2H334c-6.5 0-10.3-7.4-6.5-12.7l178-246zM880 784H144c-17.7 0-32-14.3-32-32v-736c0-17.7 14.3-32 32-32h736c17.7 0 32 14.3 32 32V752c0 17.7-14.3 32-32 32z m-40-728H184V712h656v-656z"  horiz-adv-x="1024" />

    
    <glyph glyph-name="layout" unicode="&#59310;" d="M880 784H144c-17.7 0-32-14.3-32-32v-736c0-17.7 14.3-32 32-32h736c17.7 0 32 14.3 32 32V752c0 17.7-14.3 32-32 32z m-696-72h136v-656H184V712z m656-656H384V512h456v-456zM384 576V712h456v-136H384z"  horiz-adv-x="1024" />

    
    <glyph glyph-name="left-square" unicode="&#59311;" d="M365.3 377.5l246-178c5.3-3.8 12.7 0 12.7 6.5v46.9c0 10.2-4.9 19.9-13.2 25.9L465.4 384l145.4 105.2c8.3 6 13.2 15.6 13.2 25.9V562c0 6.5-7.4 10.3-12.7 6.5l-246-178c-4.4-3.2-4.4-9.8 0-13zM880 784H144c-17.7 0-32-14.3-32-32v-736c0-17.7 14.3-32 32-32h736c17.7 0 32 14.3 32 32V752c0 17.7-14.3 32-32 32z m-40-728H184V712h656v-656z"  horiz-adv-x="1024" />

    
    <glyph glyph-name="play-square" unicode="&#59312;" d="M442.3 218.39999999999998l199.4 156.7c5.7 4.5 5.7 13.1 0 17.7L442.3 549.6c-7.4 5.8-18.3 0.6-18.3-8.8v-313.5c0-9.4 10.9-14.7 18.3-8.9zM880 784H144c-17.7 0-32-14.3-32-32v-736c0-17.7 14.3-32 32-32h736c17.7 0 32 14.3 32 32V752c0 17.7-14.3 32-32 32z m-40-728H184V712h656v-656z"  horiz-adv-x="1024" />

    
    <glyph glyph-name="control" unicode="&#59313;" d="M880 784H144c-17.7 0-32-14.3-32-32v-736c0-17.7 14.3-32 32-32h736c17.7 0 32 14.3 32 32V752c0 17.7-14.3 32-32 32z m-40-728H184V712h656v-656zM340 213v-77c0-4.4 3.6-8 8-8h48c4.4 0 8 3.6 8 8v77c-10.1-3.3-20.8-5-32-5s-21.9 1.8-32 5zM404 411V632c0 4.4-3.6 8-8 8h-48c-4.4 0-8-3.6-8-8v-221c10.1 3.3 20.8 5 32 5s21.9-1.8 32-5zM340 213c10.1-3.3 20.8-5 32-5s21.9 1.8 32 5c41.8 13.5 72 52.7 72 99s-30.2 85.5-72 99c-10.1 3.3-20.8 5-32 5s-21.9-1.8-32-5c-41.8-13.5-72-52.7-72-99s30.2-85.5 72-99z m0.1 115.7c0.3 0.6 0.7 1.2 1 1.8v0.1l1.2 1.8c0.1 0.2 0.2 0.3 0.3 0.5 0.3 0.5 0.7 0.9 1 1.4 0.1 0.1 0.2 0.3 0.3 0.4 0.5 0.6 0.9 1.1 1.4 1.6l0.3 0.3 1.2 1.2 0.4 0.4c0.5 0.5 1 0.9 1.6 1.4 0.6 0.5 1.1 0.9 1.7 1.3 0.2 0.1 0.3 0.2 0.5 0.3 0.5 0.3 0.9 0.7 1.4 1 0.1 0.1 0.3 0.2 0.4 0.3 0.6 0.4 1.2 0.7 1.9 1.1 0.1 0.1 0.3 0.1 0.4 0.2 0.5 0.3 1 0.5 1.6 0.8l0.6 0.3c0.7 0.3 1.3 0.6 2 0.8 0.7 0.3 1.4 0.5 2.1 0.7 0.2 0.1 0.4 0.1 0.6 0.2 0.6 0.2 1.1 0.3 1.7 0.4 0.2 0 0.3 0.1 0.5 0.1 0.7 0.2 1.5 0.3 2.2 0.4 0.2 0 0.3 0 0.5 0.1 0.6 0.1 1.2 0.1 1.8 0.2h0.6c0.8 0 1.5 0.1 2.3 0.1s1.5 0 2.3-0.1h0.6c0.6 0 1.2-0.1 1.8-0.2 0.2 0 0.3 0 0.5-0.1 0.7-0.1 1.5-0.2 2.2-0.4 0.2 0 0.3-0.1 0.5-0.1 0.6-0.1 1.2-0.3 1.7-0.4 0.2-0.1 0.4-0.1 0.6-0.2 0.7-0.2 1.4-0.4 2.1-0.7 0.7-0.2 1.3-0.5 2-0.8l0.6-0.3c0.5-0.2 1.1-0.5 1.6-0.8 0.1-0.1 0.3-0.1 0.4-0.2 0.6-0.3 1.3-0.7 1.9-1.1 0.1-0.1 0.3-0.2 0.4-0.3 0.5-0.3 1-0.6 1.4-1 0.2-0.1 0.3-0.2 0.5-0.3 0.6-0.4 1.2-0.9 1.7-1.3s1.1-0.9 1.6-1.4l0.4-0.4 1.2-1.2 0.3-0.3c0.5-0.5 1-1.1 1.4-1.6 0.1-0.1 0.2-0.3 0.3-0.4 0.4-0.4 0.7-0.9 1-1.4 0.1-0.2 0.2-0.3 0.3-0.5l1.2-1.8s0-0.1 0.1-0.1c0.4-0.6 0.7-1.2 1-1.8 2.6-5 4.1-10.7 4.1-16.7s-1.5-11.7-4.1-16.7c-0.3-0.6-0.7-1.2-1-1.8 0 0 0-0.1-0.1-0.1l-1.2-1.8c-0.1-0.2-0.2-0.3-0.3-0.5-0.3-0.5-0.7-0.9-1-1.4-0.1-0.1-0.2-0.3-0.3-0.4-0.5-0.6-0.9-1.1-1.4-1.6l-0.3-0.3-1.2-1.2-0.4-0.4c-0.5-0.5-1-0.9-1.6-1.4-0.6-0.5-1.1-0.9-1.7-1.3-0.2-0.1-0.3-0.2-0.5-0.3-0.5-0.3-0.9-0.7-1.4-1-0.1-0.1-0.3-0.2-0.4-0.3-0.6-0.4-1.2-0.7-1.9-1.1-0.1-0.1-0.3-0.1-0.4-0.2-0.5-0.3-1-0.5-1.6-0.8l-0.6-0.3c-0.7-0.3-1.3-0.6-2-0.8-0.7-0.3-1.4-0.5-2.1-0.7-0.2-0.1-0.4-0.1-0.6-0.2-0.6-0.2-1.1-0.3-1.7-0.4-0.2 0-0.3-0.1-0.5-0.1-0.7-0.2-1.5-0.3-2.2-0.4-0.2 0-0.3 0-0.5-0.1-0.6-0.1-1.2-0.1-1.8-0.2h-0.6c-0.8 0-1.5-0.1-2.3-0.1s-1.5 0-2.3 0.1h-0.6c-0.6 0-1.2 0.1-1.8 0.2-0.2 0-0.3 0-0.5 0.1-0.7 0.1-1.5 0.2-2.2 0.4-0.2 0-0.3 0.1-0.5 0.1-0.6 0.1-1.2 0.3-1.7 0.4-0.2 0.1-0.4 0.1-0.6 0.2-0.7 0.2-1.4 0.4-2.1 0.7-0.7 0.2-1.3 0.5-2 0.8l-0.6 0.3c-0.5 0.2-1.1 0.5-1.6 0.8-0.1 0.1-0.3 0.1-0.4 0.2-0.6 0.3-1.3 0.7-1.9 1.1-0.1 0.1-0.3 0.2-0.4 0.3-0.5 0.3-1 0.6-1.4 1-0.2 0.1-0.3 0.2-0.5 0.3-0.6 0.4-1.2 0.9-1.7 1.3s-1.1 0.9-1.6 1.4l-0.4 0.4-1.2 1.2-0.3 0.3c-0.5 0.5-1 1.1-1.4 1.6-0.1 0.1-0.2 0.3-0.3 0.4-0.4 0.4-0.7 0.9-1 1.4-0.1 0.2-0.2 0.3-0.3 0.5l-1.2 1.8v0.1c-0.4 0.6-0.7 1.2-1 1.8-2.6 5-4.1 10.7-4.1 16.7s1.5 11.7 4.1 16.7zM620 357v-221c0-4.4 3.6-8 8-8h48c4.4 0 8 3.6 8 8V357c-10.1-3.3-20.8-5-32-5s-21.9 1.8-32 5zM684 555v77c0 4.4-3.6 8-8 8h-48c-4.4 0-8-3.6-8-8v-77c10.1 3.3 20.8 5 32 5s21.9-1.8 32-5zM620 357c10.1-3.3 20.8-5 32-5s21.9 1.8 32 5c41.8 13.5 72 52.7 72 99s-30.2 85.5-72 99c-10.1 3.3-20.8 5-32 5s-21.9-1.8-32-5c-41.8-13.5-72-52.7-72-99s30.2-85.5 72-99z m0.1 115.7c0.3 0.6 0.7 1.2 1 1.8v0.1l1.2 1.8c0.1 0.2 0.2 0.3 0.3 0.5 0.3 0.5 0.7 0.9 1 1.4 0.1 0.1 0.2 0.3 0.3 0.4 0.5 0.6 0.9 1.1 1.4 1.6l0.3 0.3 1.2 1.2 0.4 0.4c0.5 0.5 1 0.9 1.6 1.4 0.6 0.5 1.1 0.9 1.7 1.3 0.2 0.1 0.3 0.2 0.5 0.3 0.5 0.3 0.9 0.7 1.4 1 0.1 0.1 0.3 0.2 0.4 0.3 0.6 0.4 1.2 0.7 1.9 1.1 0.1 0.1 0.3 0.1 0.4 0.2 0.5 0.3 1 0.5 1.6 0.8l0.6 0.3c0.7 0.3 1.3 0.6 2 0.8 0.7 0.3 1.4 0.5 2.1 0.7 0.2 0.1 0.4 0.1 0.6 0.2 0.6 0.2 1.1 0.3 1.7 0.4 0.2 0 0.3 0.1 0.5 0.1 0.7 0.2 1.5 0.3 2.2 0.4 0.2 0 0.3 0 0.5 0.1 0.6 0.1 1.2 0.1 1.8 0.2h0.6c0.8 0 1.5 0.1 2.3 0.1s1.5 0 2.3-0.1h0.6c0.6 0 1.2-0.1 1.8-0.2 0.2 0 0.3 0 0.5-0.1 0.7-0.1 1.5-0.2 2.2-0.4 0.2 0 0.3-0.1 0.5-0.1 0.6-0.1 1.2-0.3 1.7-0.4 0.2-0.1 0.4-0.1 0.6-0.2 0.7-0.2 1.4-0.4 2.1-0.7 0.7-0.2 1.3-0.5 2-0.8l0.6-0.3c0.5-0.2 1.1-0.5 1.6-0.8 0.1-0.1 0.3-0.1 0.4-0.2 0.6-0.3 1.3-0.7 1.9-1.1 0.1-0.1 0.3-0.2 0.4-0.3 0.5-0.3 1-0.6 1.4-1 0.2-0.1 0.3-0.2 0.5-0.3 0.6-0.4 1.2-0.9 1.7-1.3s1.1-0.9 1.6-1.4l0.4-0.4 1.2-1.2 0.3-0.3c0.5-0.5 1-1.1 1.4-1.6 0.1-0.1 0.2-0.3 0.3-0.4 0.4-0.4 0.7-0.9 1-1.4 0.1-0.2 0.2-0.3 0.3-0.5l1.2-1.8v-0.1c0.4-0.6 0.7-1.2 1-1.8 2.6-5 4.1-10.7 4.1-16.7s-1.5-11.7-4.1-16.7c-0.3-0.6-0.7-1.2-1-1.8v-0.1l-1.2-1.8c-0.1-0.2-0.2-0.3-0.3-0.5-0.3-0.5-0.7-0.9-1-1.4-0.1-0.1-0.2-0.3-0.3-0.4-0.5-0.6-0.9-1.1-1.4-1.6l-0.3-0.3-1.2-1.2-0.4-0.4c-0.5-0.5-1-0.9-1.6-1.4-0.6-0.5-1.1-0.9-1.7-1.3-0.2-0.1-0.3-0.2-0.5-0.3-0.5-0.3-0.9-0.7-1.4-1-0.1-0.1-0.3-0.2-0.4-0.3-0.6-0.4-1.2-0.7-1.9-1.1-0.1-0.1-0.3-0.1-0.4-0.2-0.5-0.3-1-0.5-1.6-0.8l-0.6-0.3c-0.7-0.3-1.3-0.6-2-0.8-0.7-0.3-1.4-0.5-2.1-0.7-0.2-0.1-0.4-0.1-0.6-0.2-0.6-0.2-1.1-0.3-1.7-0.4-0.2 0-0.3-0.1-0.5-0.1-0.7-0.2-1.5-0.3-2.2-0.4-0.2 0-0.3 0-0.5-0.1-0.6-0.1-1.2-0.1-1.8-0.2h-0.6c-0.8 0-1.5-0.1-2.3-0.1s-1.5 0-2.3 0.1h-0.6c-0.6 0-1.2 0.1-1.8 0.2-0.2 0-0.3 0-0.5 0.1-0.7 0.1-1.5 0.2-2.2 0.4-0.2 0-0.3 0.1-0.5 0.1-0.6 0.1-1.2 0.3-1.7 0.4-0.2 0.1-0.4 0.1-0.6 0.2-0.7 0.2-1.4 0.4-2.1 0.7-0.7 0.2-1.3 0.5-2 0.8l-0.6 0.3c-0.5 0.2-1.1 0.5-1.6 0.8-0.1 0.1-0.3 0.1-0.4 0.2-0.6 0.3-1.3 0.7-1.9 1.1-0.1 0.1-0.3 0.2-0.4 0.3-0.5 0.3-1 0.6-1.4 1-0.2 0.1-0.3 0.2-0.5 0.3-0.6 0.4-1.2 0.9-1.7 1.3s-1.1 0.9-1.6 1.4l-0.4 0.4-1.2 1.2-0.3 0.3c-0.5 0.5-1 1.1-1.4 1.6-0.1 0.1-0.2 0.3-0.3 0.4-0.4 0.4-0.7 0.9-1 1.4-0.1 0.2-0.2 0.3-0.3 0.5l-1.2 1.8v0.1c-0.4 0.6-0.7 1.2-1 1.8-2.6 5-4.1 10.7-4.1 16.7s1.5 11.7 4.1 16.7z"  horiz-adv-x="1024" />

    
    <glyph glyph-name="codelibrary" unicode="&#59314;" d="M516 223c0-4.4 3.4-8 7.5-8h185c4.1 0 7.5 3.6 7.5 8v48c0 4.4-3.4 8-7.5 8h-185c-4.1 0-7.5-3.6-7.5-8v-48zM321.1 216.9l192 161c3.8 3.2 3.8 9.1 0 12.3l-192 160.9c-5.2 4.4-13.1 0.7-13.1-6.1v-62.7c0-2.4 1-4.6 2.9-6.1L420.7 384l-109.8-92.2c-1.8-1.5-2.9-3.8-2.9-6.1V223c0-6.8 7.9-10.5 13.1-6.1zM880 784H144c-17.7 0-32-14.3-32-32v-736c0-17.7 14.3-32 32-32h736c17.7 0 32 14.3 32 32V752c0 17.7-14.3 32-32 32z m-40-728H184V712h656v-656z"  horiz-adv-x="1024" />

    
    <glyph glyph-name="detail" unicode="&#59315;" d="M880 784H144c-17.7 0-32-14.3-32-32v-736c0-17.7 14.3-32 32-32h736c17.7 0 32 14.3 32 32V752c0 17.7-14.3 32-32 32z m-40-728H184V712h656v-656zM492 496h184c4.4 0 8 3.6 8 8v48c0 4.4-3.6 8-8 8H492c-4.4 0-8-3.6-8-8v-48c0-4.4 3.6-8 8-8zM492 352h184c4.4 0 8 3.6 8 8v48c0 4.4-3.6 8-8 8H492c-4.4 0-8-3.6-8-8v-48c0-4.4 3.6-8 8-8zM492 208h184c4.4 0 8 3.6 8 8v48c0 4.4-3.6 8-8 8H492c-4.4 0-8-3.6-8-8v-48c0-4.4 3.6-8 8-8zM380 528m-40 0a40 40 0 1 1 80 0 40 40 0 1 1-80 0ZM380 384m-40 0a40 40 0 1 1 80 0 40 40 0 1 1-80 0ZM380 240m-40 0a40 40 0 1 1 80 0 40 40 0 1 1-80 0Z"  horiz-adv-x="1024" />

    
    <glyph glyph-name="minus-square" unicode="&#59316;" d="M328 352h368c4.4 0 8 3.6 8 8v48c0 4.4-3.6 8-8 8H328c-4.4 0-8-3.6-8-8v-48c0-4.4 3.6-8 8-8zM880 784H144c-17.7 0-32-14.3-32-32v-736c0-17.7 14.3-32 32-32h736c17.7 0 32 14.3 32 32V752c0 17.7-14.3 32-32 32z m-40-728H184V712h656v-656z"  horiz-adv-x="1024" />

    
    <glyph glyph-name="plus-square" unicode="&#59317;" d="M328 352h152v-152c0-4.4 3.6-8 8-8h48c4.4 0 8 3.6 8 8V352h152c4.4 0 8 3.6 8 8v48c0 4.4-3.6 8-8 8H544V568c0 4.4-3.6 8-8 8h-48c-4.4 0-8-3.6-8-8v-152H328c-4.4 0-8-3.6-8-8v-48c0-4.4 3.6-8 8-8zM880 784H144c-17.7 0-32-14.3-32-32v-736c0-17.7 14.3-32 32-32h736c17.7 0 32 14.3 32 32V752c0 17.7-14.3 32-32 32z m-40-728H184V712h656v-656z"  horiz-adv-x="1024" />

    
    <glyph glyph-name="right-square" unicode="&#59318;" d="M412.7 199.5l246 178c4.4 3.2 4.4 9.7 0 12.9l-246 178c-5.3 3.8-12.7 0-12.7-6.5V515c0-10.2 4.9-19.9 13.2-25.9L558.6 384 413.2 278.79999999999995c-8.3-6-13.2-15.6-13.2-25.9V206c0-6.5 7.4-10.3 12.7-6.5zM880 784H144c-17.7 0-32-14.3-32-32v-736c0-17.7 14.3-32 32-32h736c17.7 0 32 14.3 32 32V752c0 17.7-14.3 32-32 32z m-40-728H184V712h656v-656z"  horiz-adv-x="1024" />

    
    <glyph glyph-name="project" unicode="&#59319;" d="M280 144h80c4.4 0 8 3.6 8 8V616c0 4.4-3.6 8-8 8h-80c-4.4 0-8-3.6-8-8v-464c0-4.4 3.6-8 8-8zM472 424h80c4.4 0 8 3.6 8 8V616c0 4.4-3.6 8-8 8h-80c-4.4 0-8-3.6-8-8v-184c0-4.4 3.6-8 8-8zM664 352h80c4.4 0 8 3.6 8 8V616c0 4.4-3.6 8-8 8h-80c-4.4 0-8-3.6-8-8v-256c0-4.4 3.6-8 8-8zM880 784H144c-17.7 0-32-14.3-32-32v-736c0-17.7 14.3-32 32-32h736c17.7 0 32 14.3 32 32V752c0 17.7-14.3 32-32 32z m-40-728H184V712h656v-656z"  horiz-adv-x="1024" />

    
    <glyph glyph-name="wallet" unicode="&#59320;" d="M880 784H144c-17.7 0-32-14.3-32-32v-736c0-17.7 14.3-32 32-32h736c17.7 0 32 14.3 32 32V752c0 17.7-14.3 32-32 32z m-40-464H528V448h312v-128z m0-264H184V712h656v-200H496c-17.7 0-32-14.3-32-32v-192c0-17.7 14.3-32 32-32h344v-200zM620 384m-40 0a40 40 0 1 1 80 0 40 40 0 1 1-80 0Z"  horiz-adv-x="1024" />

    
    <glyph glyph-name="up-square" unicode="&#59321;" d="M334 272h46.9c10.2 0 19.9 4.9 25.9 13.2L512 430.6l105.2-145.4c6-8.3 15.6-13.2 25.9-13.2H690c6.5 0 10.3 7.4 6.5 12.7l-178 246c-3.2 4.4-9.7 4.4-12.9 0l-178-246c-3.9-5.3-0.1-12.7 6.4-12.7zM880 784H144c-17.7 0-32-14.3-32-32v-736c0-17.7 14.3-32 32-32h736c17.7 0 32 14.3 32 32V752c0 17.7-14.3 32-32 32z m-40-728H184V712h656v-656z"  horiz-adv-x="1024" />

    
    <glyph glyph-name="calculator" unicode="&#59322;" d="M251.2 509H320v-68.8c0-1.8 1.8-3.2 4-3.2h48c2.2 0 4 1.4 4 3.3V509h68.8c1.8 0 3.2 1.8 3.2 4v48c0 2.2-1.4 4-3.3 4H376v68.8c0 1.8-1.8 3.2-4 3.2h-48c-2.2 0-4-1.4-4-3.2V565h-68.8c-1.8 0-3.2-1.8-3.2-4v-48c0-2.2 1.4-4 3.2-4zM579.2 509h193.6c1.8 0 3.2 1.8 3.2 4v48c0 2.2-1.4 4-3.3 4H579.2c-1.8 0-3.2-1.8-3.2-4v-48c0-2.2 1.4-4 3.2-4zM579.2 244h193.6c1.8 0 3.2 1.8 3.2 4v48c0 2.2-1.4 4-3.3 4H579.2c-1.8 0-3.2-1.8-3.2-4v-48c0-2.2 1.4-4 3.2-4zM579.2 140h193.6c1.8 0 3.2 1.8 3.2 4v48c0 2.2-1.4 4-3.3 4H579.2c-1.8 0-3.2-1.8-3.2-4v-48c0-2.2 1.4-4 3.2-4zM383.5 221l61.2 74.9c4.3 5.2 0.7 13.1-5.9 13.1H388c-2.3 0-4.5-1-5.9-2.9l-34-41.6-34 41.6c-1.5 1.8-3.7 2.9-5.9 2.9h-50.9c-6.6 0-10.2-7.9-5.9-13.1l61.2-74.9-62.7-76.8c-4.4-5.2-0.8-13.1 5.8-13.1h50.8c2.3 0 4.5 1 5.9 2.9l35.5 43.5 35.5-43.5c1.5-1.8 3.7-2.9 5.9-2.9h50.8c6.6 0 10.2 7.9 5.9 13.1L383.5 221zM880 784H144c-17.7 0-32-14.3-32-32v-736c0-17.7 14.3-32 32-32h736c17.7 0 32 14.3 32 32V752c0 17.7-14.3 32-32 32z m-36-732H180V716h664v-664z"  horiz-adv-x="1024" />

    
    <glyph glyph-name="interation" unicode="&#59323;" d="M880 784H144c-17.7 0-32-14.3-32-32v-736c0-17.7 14.3-32 32-32h736c17.7 0 32 14.3 32 32V752c0 17.7-14.3 32-32 32z m-40-728H184V712h656v-656zM304.8 372h50.7c3.7 0 6.8 3 6.8 6.8v78.9c0 19.7 15.9 35.6 35.5 35.6h205.7v-53.4c0-5.7 6.5-8.8 10.9-5.3l109.1 85.7c3.5 2.7 3.5 8 0 10.7l-109.1 85.7c-4.4 3.5-10.9 0.3-10.9-5.3V558H397.7c-55.1 0-99.7-44.8-99.7-100.1V379c0-4 3-7 6.8-7zM300.6 237.1l109.1-85.7c4.4-3.5 10.9-0.3 10.9 5.3v53.4h205.7c55.1 0 99.7 44.8 99.7 100.1v78.9c0 3.7-3 6.8-6.8 6.8h-50.7c-3.7 0-6.8-3-6.8-6.8v-78.9c0-19.7-15.9-35.6-35.5-35.6H420.6V328c0 5.7-6.5 8.8-10.9 5.3l-109.1-85.7c-3.5-2.5-3.5-7.8 0-10.5z"  horiz-adv-x="1024" />

    
    <glyph glyph-name="check-square" unicode="&#59324;" d="M433.1 238.29999999999995c12.7-17.7 39-17.7 51.7 0l210.6 292c3.8 5.3 0 12.7-6.5 12.7H642c-10.2 0-19.9-4.9-25.9-13.3L459 311.70000000000005l-71.2 98.8c-6 8.3-15.6 13.3-25.9 13.3H315c-6.5 0-10.3-7.4-6.5-12.7l124.6-172.8zM880 784H144c-17.7 0-32-14.3-32-32v-736c0-17.7 14.3-32 32-32h736c17.7 0 32 14.3 32 32V752c0 17.7-14.3 32-32 32z m-40-728H184V712h656v-656z"  horiz-adv-x="1024" />

    
    <glyph glyph-name="border" unicode="&#59325;" d="M880 784H144c-17.7 0-32-14.3-32-32v-736c0-17.7 14.3-32 32-32h736c17.7 0 32 14.3 32 32V752c0 17.7-14.3 32-32 32z m-40-728H184V712h656v-656z"  horiz-adv-x="1024" />

    
    <glyph glyph-name="border-outer" unicode="&#59326;" d="M880 784H144c-17.7 0-32-14.3-32-32v-736c0-17.7 14.3-32 32-32h736c17.7 0 32 14.3 32 32V752c0 17.7-14.3 32-32 32z m-40-728H184V712h656v-656zM484 530h56c4.4 0 8 3.6 8 8v56c0 4.4-3.6 8-8 8h-56c-4.4 0-8-3.6-8-8v-56c0-4.4 3.6-8 8-8zM302 348h56c4.4 0 8 3.6 8 8v56c0 4.4-3.6 8-8 8h-56c-4.4 0-8-3.6-8-8v-56c0-4.4 3.6-8 8-8zM666 348h56c4.4 0 8 3.6 8 8v56c0 4.4-3.6 8-8 8h-56c-4.4 0-8-3.6-8-8v-56c0-4.4 3.6-8 8-8zM484 348h56c4.4 0 8 3.6 8 8v56c0 4.4-3.6 8-8 8h-56c-4.4 0-8-3.6-8-8v-56c0-4.4 3.6-8 8-8zM484 166h56c4.4 0 8 3.6 8 8v56c0 4.4-3.6 8-8 8h-56c-4.4 0-8-3.6-8-8v-56c0-4.4 3.6-8 8-8z"  horiz-adv-x="1024" />

    
    <glyph glyph-name="border-top" unicode="&#59327;" d="M872 752H152c-4.4 0-8-3.6-8-8v-56c0-4.4 3.6-8 8-8h720c4.4 0 8 3.6 8 8v56c0 4.4-3.6 8-8 8zM208 586h-56c-4.4 0-8-3.6-8-8v-56c0-4.4 3.6-8 8-8h56c4.4 0 8 3.6 8 8v56c0 4.4-3.6 8-8 8zM208 88h-56c-4.4 0-8-3.6-8-8v-56c0-4.4 3.6-8 8-8h56c4.4 0 8 3.6 8 8v56c0 4.4-3.6 8-8 8zM208 420h-56c-4.4 0-8-3.6-8-8v-56c0-4.4 3.6-8 8-8h56c4.4 0 8 3.6 8 8v56c0 4.4-3.6 8-8 8zM208 254h-56c-4.4 0-8-3.6-8-8v-56c0-4.4 3.6-8 8-8h56c4.4 0 8 3.6 8 8v56c0 4.4-3.6 8-8 8zM374 420h-56c-4.4 0-8-3.6-8-8v-56c0-4.4 3.6-8 8-8h56c4.4 0 8 3.6 8 8v56c0 4.4-3.6 8-8 8zM374 88h-56c-4.4 0-8-3.6-8-8v-56c0-4.4 3.6-8 8-8h56c4.4 0 8 3.6 8 8v56c0 4.4-3.6 8-8 8zM706 88h-56c-4.4 0-8-3.6-8-8v-56c0-4.4 3.6-8 8-8h56c4.4 0 8 3.6 8 8v56c0 4.4-3.6 8-8 8zM706 420h-56c-4.4 0-8-3.6-8-8v-56c0-4.4 3.6-8 8-8h56c4.4 0 8 3.6 8 8v56c0 4.4-3.6 8-8 8zM872 420h-56c-4.4 0-8-3.6-8-8v-56c0-4.4 3.6-8 8-8h56c4.4 0 8 3.6 8 8v56c0 4.4-3.6 8-8 8zM540 420h-56c-4.4 0-8-3.6-8-8v-56c0-4.4 3.6-8 8-8h56c4.4 0 8 3.6 8 8v56c0 4.4-3.6 8-8 8zM872 88h-56c-4.4 0-8-3.6-8-8v-56c0-4.4 3.6-8 8-8h56c4.4 0 8 3.6 8 8v56c0 4.4-3.6 8-8 8zM540 88h-56c-4.4 0-8-3.6-8-8v-56c0-4.4 3.6-8 8-8h56c4.4 0 8 3.6 8 8v56c0 4.4-3.6 8-8 8zM872 586h-56c-4.4 0-8-3.6-8-8v-56c0-4.4 3.6-8 8-8h56c4.4 0 8 3.6 8 8v56c0 4.4-3.6 8-8 8zM540 586h-56c-4.4 0-8-3.6-8-8v-56c0-4.4 3.6-8 8-8h56c4.4 0 8 3.6 8 8v56c0 4.4-3.6 8-8 8zM872 254h-56c-4.4 0-8-3.6-8-8v-56c0-4.4 3.6-8 8-8h56c4.4 0 8 3.6 8 8v56c0 4.4-3.6 8-8 8zM540 254h-56c-4.4 0-8-3.6-8-8v-56c0-4.4 3.6-8 8-8h56c4.4 0 8 3.6 8 8v56c0 4.4-3.6 8-8 8z"  horiz-adv-x="1024" />

    
    <glyph glyph-name="border-bottom" unicode="&#59328;" d="M872 88H152c-4.4 0-8-3.6-8-8v-56c0-4.4 3.6-8 8-8h720c4.4 0 8 3.6 8 8v56c0 4.4-3.6 8-8 8zM152 182h56c4.4 0 8 3.6 8 8v56c0 4.4-3.6 8-8 8h-56c-4.4 0-8-3.6-8-8v-56c0-4.4 3.6-8 8-8zM152 680h56c4.4 0 8 3.6 8 8v56c0 4.4-3.6 8-8 8h-56c-4.4 0-8-3.6-8-8v-56c0-4.4 3.6-8 8-8zM152 348h56c4.4 0 8 3.6 8 8v56c0 4.4-3.6 8-8 8h-56c-4.4 0-8-3.6-8-8v-56c0-4.4 3.6-8 8-8zM152 514h56c4.4 0 8 3.6 8 8v56c0 4.4-3.6 8-8 8h-56c-4.4 0-8-3.6-8-8v-56c0-4.4 3.6-8 8-8zM318 348h56c4.4 0 8 3.6 8 8v56c0 4.4-3.6 8-8 8h-56c-4.4 0-8-3.6-8-8v-56c0-4.4 3.6-8 8-8zM318 680h56c4.4 0 8 3.6 8 8v56c0 4.4-3.6 8-8 8h-56c-4.4 0-8-3.6-8-8v-56c0-4.4 3.6-8 8-8zM650 680h56c4.4 0 8 3.6 8 8v56c0 4.4-3.6 8-8 8h-56c-4.4 0-8-3.6-8-8v-56c0-4.4 3.6-8 8-8zM650 348h56c4.4 0 8 3.6 8 8v56c0 4.4-3.6 8-8 8h-56c-4.4 0-8-3.6-8-8v-56c0-4.4 3.6-8 8-8zM872 420h-56c-4.4 0-8-3.6-8-8v-56c0-4.4 3.6-8 8-8h56c4.4 0 8 3.6 8 8v56c0 4.4-3.6 8-8 8zM484 348h56c4.4 0 8 3.6 8 8v56c0 4.4-3.6 8-8 8h-56c-4.4 0-8-3.6-8-8v-56c0-4.4 3.6-8 8-8zM872 752h-56c-4.4 0-8-3.6-8-8v-56c0-4.4 3.6-8 8-8h56c4.4 0 8 3.6 8 8v56c0 4.4-3.6 8-8 8zM484 680h56c4.4 0 8 3.6 8 8v56c0 4.4-3.6 8-8 8h-56c-4.4 0-8-3.6-8-8v-56c0-4.4 3.6-8 8-8zM872 254h-56c-4.4 0-8-3.6-8-8v-56c0-4.4 3.6-8 8-8h56c4.4 0 8 3.6 8 8v56c0 4.4-3.6 8-8 8zM484 182h56c4.4 0 8 3.6 8 8v56c0 4.4-3.6 8-8 8h-56c-4.4 0-8-3.6-8-8v-56c0-4.4 3.6-8 8-8zM872 586h-56c-4.4 0-8-3.6-8-8v-56c0-4.4 3.6-8 8-8h56c4.4 0 8 3.6 8 8v56c0 4.4-3.6 8-8 8zM484 514h56c4.4 0 8 3.6 8 8v56c0 4.4-3.6 8-8 8h-56c-4.4 0-8-3.6-8-8v-56c0-4.4 3.6-8 8-8z"  horiz-adv-x="1024" />

    
    <glyph glyph-name="border-left" unicode="&#59329;" d="M208 752h-56c-4.4 0-8-3.6-8-8v-720c0-4.4 3.6-8 8-8h56c4.4 0 8 3.6 8 8V744c0 4.4-3.6 8-8 8zM374 752h-56c-4.4 0-8-3.6-8-8v-56c0-4.4 3.6-8 8-8h56c4.4 0 8 3.6 8 8v56c0 4.4-3.6 8-8 8zM872 752h-56c-4.4 0-8-3.6-8-8v-56c0-4.4 3.6-8 8-8h56c4.4 0 8 3.6 8 8v56c0 4.4-3.6 8-8 8zM540 752h-56c-4.4 0-8-3.6-8-8v-56c0-4.4 3.6-8 8-8h56c4.4 0 8 3.6 8 8v56c0 4.4-3.6 8-8 8zM706 752h-56c-4.4 0-8-3.6-8-8v-56c0-4.4 3.6-8 8-8h56c4.4 0 8 3.6 8 8v56c0 4.4-3.6 8-8 8zM540 586h-56c-4.4 0-8-3.6-8-8v-56c0-4.4 3.6-8 8-8h56c4.4 0 8 3.6 8 8v56c0 4.4-3.6 8-8 8zM872 586h-56c-4.4 0-8-3.6-8-8v-56c0-4.4 3.6-8 8-8h56c4.4 0 8 3.6 8 8v56c0 4.4-3.6 8-8 8zM872 254h-56c-4.4 0-8-3.6-8-8v-56c0-4.4 3.6-8 8-8h56c4.4 0 8 3.6 8 8v56c0 4.4-3.6 8-8 8zM540 254h-56c-4.4 0-8-3.6-8-8v-56c0-4.4 3.6-8 8-8h56c4.4 0 8 3.6 8 8v56c0 4.4-3.6 8-8 8zM540 88h-56c-4.4 0-8-3.6-8-8v-56c0-4.4 3.6-8 8-8h56c4.4 0 8 3.6 8 8v56c0 4.4-3.6 8-8 8zM540 420h-56c-4.4 0-8-3.6-8-8v-56c0-4.4 3.6-8 8-8h56c4.4 0 8 3.6 8 8v56c0 4.4-3.6 8-8 8zM872 88h-56c-4.4 0-8-3.6-8-8v-56c0-4.4 3.6-8 8-8h56c4.4 0 8 3.6 8 8v56c0 4.4-3.6 8-8 8zM872 420h-56c-4.4 0-8-3.6-8-8v-56c0-4.4 3.6-8 8-8h56c4.4 0 8 3.6 8 8v56c0 4.4-3.6 8-8 8zM374 88h-56c-4.4 0-8-3.6-8-8v-56c0-4.4 3.6-8 8-8h56c4.4 0 8 3.6 8 8v56c0 4.4-3.6 8-8 8zM374 420h-56c-4.4 0-8-3.6-8-8v-56c0-4.4 3.6-8 8-8h56c4.4 0 8 3.6 8 8v56c0 4.4-3.6 8-8 8zM706 88h-56c-4.4 0-8-3.6-8-8v-56c0-4.4 3.6-8 8-8h56c4.4 0 8 3.6 8 8v56c0 4.4-3.6 8-8 8zM706 420h-56c-4.4 0-8-3.6-8-8v-56c0-4.4 3.6-8 8-8h56c4.4 0 8 3.6 8 8v56c0 4.4-3.6 8-8 8z"  horiz-adv-x="1024" />

    
    <glyph glyph-name="border-right" unicode="&#59330;" d="M872 752h-56c-4.4 0-8-3.6-8-8v-720c0-4.4 3.6-8 8-8h56c4.4 0 8 3.6 8 8V744c0 4.4-3.6 8-8 8zM706 752h-56c-4.4 0-8-3.6-8-8v-56c0-4.4 3.6-8 8-8h56c4.4 0 8 3.6 8 8v56c0 4.4-3.6 8-8 8zM208 752h-56c-4.4 0-8-3.6-8-8v-56c0-4.4 3.6-8 8-8h56c4.4 0 8 3.6 8 8v56c0 4.4-3.6 8-8 8zM540 752h-56c-4.4 0-8-3.6-8-8v-56c0-4.4 3.6-8 8-8h56c4.4 0 8 3.6 8 8v56c0 4.4-3.6 8-8 8zM374 752h-56c-4.4 0-8-3.6-8-8v-56c0-4.4 3.6-8 8-8h56c4.4 0 8 3.6 8 8v56c0 4.4-3.6 8-8 8zM540 586h-56c-4.4 0-8-3.6-8-8v-56c0-4.4 3.6-8 8-8h56c4.4 0 8 3.6 8 8v56c0 4.4-3.6 8-8 8zM208 586h-56c-4.4 0-8-3.6-8-8v-56c0-4.4 3.6-8 8-8h56c4.4 0 8 3.6 8 8v56c0 4.4-3.6 8-8 8zM208 254h-56c-4.4 0-8-3.6-8-8v-56c0-4.4 3.6-8 8-8h56c4.4 0 8 3.6 8 8v56c0 4.4-3.6 8-8 8zM540 254h-56c-4.4 0-8-3.6-8-8v-56c0-4.4 3.6-8 8-8h56c4.4 0 8 3.6 8 8v56c0 4.4-3.6 8-8 8zM540 88h-56c-4.4 0-8-3.6-8-8v-56c0-4.4 3.6-8 8-8h56c4.4 0 8 3.6 8 8v56c0 4.4-3.6 8-8 8zM540 420h-56c-4.4 0-8-3.6-8-8v-56c0-4.4 3.6-8 8-8h56c4.4 0 8 3.6 8 8v56c0 4.4-3.6 8-8 8zM208 88h-56c-4.4 0-8-3.6-8-8v-56c0-4.4 3.6-8 8-8h56c4.4 0 8 3.6 8 8v56c0 4.4-3.6 8-8 8zM208 420h-56c-4.4 0-8-3.6-8-8v-56c0-4.4 3.6-8 8-8h56c4.4 0 8 3.6 8 8v56c0 4.4-3.6 8-8 8zM706 88h-56c-4.4 0-8-3.6-8-8v-56c0-4.4 3.6-8 8-8h56c4.4 0 8 3.6 8 8v56c0 4.4-3.6 8-8 8zM706 420h-56c-4.4 0-8-3.6-8-8v-56c0-4.4 3.6-8 8-8h56c4.4 0 8 3.6 8 8v56c0 4.4-3.6 8-8 8zM374 88h-56c-4.4 0-8-3.6-8-8v-56c0-4.4 3.6-8 8-8h56c4.4 0 8 3.6 8 8v56c0 4.4-3.6 8-8 8zM374 420h-56c-4.4 0-8-3.6-8-8v-56c0-4.4 3.6-8 8-8h56c4.4 0 8 3.6 8 8v56c0 4.4-3.6 8-8 8z"  horiz-adv-x="1024" />

    
    <glyph glyph-name="border-inner" unicode="&#59331;" d="M872 420H548V752h-72v-332H152c-4.4 0-8-3.6-8-8v-56c0-4.4 3.6-8 8-8h324v-332h72V348h324c4.4 0 8 3.6 8 8v56c0 4.4-3.6 8-8 8zM872 586h-56c-4.4 0-8-3.6-8-8v-56c0-4.4 3.6-8 8-8h56c4.4 0 8 3.6 8 8v56c0 4.4-3.6 8-8 8zM872 88h-56c-4.4 0-8-3.6-8-8v-56c0-4.4 3.6-8 8-8h56c4.4 0 8 3.6 8 8v56c0 4.4-3.6 8-8 8zM872 752h-56c-4.4 0-8-3.6-8-8v-56c0-4.4 3.6-8 8-8h56c4.4 0 8 3.6 8 8v56c0 4.4-3.6 8-8 8zM872 254h-56c-4.4 0-8-3.6-8-8v-56c0-4.4 3.6-8 8-8h56c4.4 0 8 3.6 8 8v56c0 4.4-3.6 8-8 8zM650 680h56c4.4 0 8 3.6 8 8v56c0 4.4-3.6 8-8 8h-56c-4.4 0-8-3.6-8-8v-56c0-4.4 3.6-8 8-8zM706 88h-56c-4.4 0-8-3.6-8-8v-56c0-4.4 3.6-8 8-8h56c4.4 0 8 3.6 8 8v56c0 4.4-3.6 8-8 8zM374 88h-56c-4.4 0-8-3.6-8-8v-56c0-4.4 3.6-8 8-8h56c4.4 0 8 3.6 8 8v56c0 4.4-3.6 8-8 8zM318 680h56c4.4 0 8 3.6 8 8v56c0 4.4-3.6 8-8 8h-56c-4.4 0-8-3.6-8-8v-56c0-4.4 3.6-8 8-8zM152 680h56c4.4 0 8 3.6 8 8v56c0 4.4-3.6 8-8 8h-56c-4.4 0-8-3.6-8-8v-56c0-4.4 3.6-8 8-8zM208 88h-56c-4.4 0-8-3.6-8-8v-56c0-4.4 3.6-8 8-8h56c4.4 0 8 3.6 8 8v56c0 4.4-3.6 8-8 8zM152 514h56c4.4 0 8 3.6 8 8v56c0 4.4-3.6 8-8 8h-56c-4.4 0-8-3.6-8-8v-56c0-4.4 3.6-8 8-8zM208 254h-56c-4.4 0-8-3.6-8-8v-56c0-4.4 3.6-8 8-8h56c4.4 0 8 3.6 8 8v56c0 4.4-3.6 8-8 8z"  horiz-adv-x="1024" />

    
    <glyph glyph-name="border-verticle" unicode="&#59332;" d="M872 420H152c-4.4 0-8-3.6-8-8v-56c0-4.4 3.6-8 8-8h720c4.4 0 8 3.6 8 8v56c0 4.4-3.6 8-8 8zM872 586h-56c-4.4 0-8-3.6-8-8v-56c0-4.4 3.6-8 8-8h56c4.4 0 8 3.6 8 8v56c0 4.4-3.6 8-8 8zM872 88h-56c-4.4 0-8-3.6-8-8v-56c0-4.4 3.6-8 8-8h56c4.4 0 8 3.6 8 8v56c0 4.4-3.6 8-8 8zM872 752h-56c-4.4 0-8-3.6-8-8v-56c0-4.4 3.6-8 8-8h56c4.4 0 8 3.6 8 8v56c0 4.4-3.6 8-8 8zM872 254h-56c-4.4 0-8-3.6-8-8v-56c0-4.4 3.6-8 8-8h56c4.4 0 8 3.6 8 8v56c0 4.4-3.6 8-8 8zM650 680h56c4.4 0 8 3.6 8 8v56c0 4.4-3.6 8-8 8h-56c-4.4 0-8-3.6-8-8v-56c0-4.4 3.6-8 8-8zM706 88h-56c-4.4 0-8-3.6-8-8v-56c0-4.4 3.6-8 8-8h56c4.4 0 8 3.6 8 8v56c0 4.4-3.6 8-8 8zM374 88h-56c-4.4 0-8-3.6-8-8v-56c0-4.4 3.6-8 8-8h56c4.4 0 8 3.6 8 8v56c0 4.4-3.6 8-8 8zM318 680h56c4.4 0 8 3.6 8 8v56c0 4.4-3.6 8-8 8h-56c-4.4 0-8-3.6-8-8v-56c0-4.4 3.6-8 8-8zM152 680h56c4.4 0 8 3.6 8 8v56c0 4.4-3.6 8-8 8h-56c-4.4 0-8-3.6-8-8v-56c0-4.4 3.6-8 8-8zM484 680h56c4.4 0 8 3.6 8 8v56c0 4.4-3.6 8-8 8h-56c-4.4 0-8-3.6-8-8v-56c0-4.4 3.6-8 8-8zM208 88h-56c-4.4 0-8-3.6-8-8v-56c0-4.4 3.6-8 8-8h56c4.4 0 8 3.6 8 8v56c0 4.4-3.6 8-8 8zM540 88h-56c-4.4 0-8-3.6-8-8v-56c0-4.4 3.6-8 8-8h56c4.4 0 8 3.6 8 8v56c0 4.4-3.6 8-8 8zM152 514h56c4.4 0 8 3.6 8 8v56c0 4.4-3.6 8-8 8h-56c-4.4 0-8-3.6-8-8v-56c0-4.4 3.6-8 8-8zM484 514h56c4.4 0 8 3.6 8 8v56c0 4.4-3.6 8-8 8h-56c-4.4 0-8-3.6-8-8v-56c0-4.4 3.6-8 8-8zM208 254h-56c-4.4 0-8-3.6-8-8v-56c0-4.4 3.6-8 8-8h56c4.4 0 8 3.6 8 8v56c0 4.4-3.6 8-8 8zM540 254h-56c-4.4 0-8-3.6-8-8v-56c0-4.4 3.6-8 8-8h56c4.4 0 8 3.6 8 8v56c0 4.4-3.6 8-8 8z"  horiz-adv-x="1024" />

    
    <glyph glyph-name="border-horizontal" unicode="&#59333;" d="M540 752h-56c-4.4 0-8-3.6-8-8v-720c0-4.4 3.6-8 8-8h56c4.4 0 8 3.6 8 8V744c0 4.4-3.6 8-8 8zM374 752h-56c-4.4 0-8-3.6-8-8v-56c0-4.4 3.6-8 8-8h56c4.4 0 8 3.6 8 8v56c0 4.4-3.6 8-8 8zM872 752h-56c-4.4 0-8-3.6-8-8v-56c0-4.4 3.6-8 8-8h56c4.4 0 8 3.6 8 8v56c0 4.4-3.6 8-8 8zM208 752h-56c-4.4 0-8-3.6-8-8v-56c0-4.4 3.6-8 8-8h56c4.4 0 8 3.6 8 8v56c0 4.4-3.6 8-8 8zM706 752h-56c-4.4 0-8-3.6-8-8v-56c0-4.4 3.6-8 8-8h56c4.4 0 8 3.6 8 8v56c0 4.4-3.6 8-8 8zM208 586h-56c-4.4 0-8-3.6-8-8v-56c0-4.4 3.6-8 8-8h56c4.4 0 8 3.6 8 8v56c0 4.4-3.6 8-8 8zM872 586h-56c-4.4 0-8-3.6-8-8v-56c0-4.4 3.6-8 8-8h56c4.4 0 8 3.6 8 8v56c0 4.4-3.6 8-8 8zM872 254h-56c-4.4 0-8-3.6-8-8v-56c0-4.4 3.6-8 8-8h56c4.4 0 8 3.6 8 8v56c0 4.4-3.6 8-8 8zM208 254h-56c-4.4 0-8-3.6-8-8v-56c0-4.4 3.6-8 8-8h56c4.4 0 8 3.6 8 8v56c0 4.4-3.6 8-8 8zM208 88h-56c-4.4 0-8-3.6-8-8v-56c0-4.4 3.6-8 8-8h56c4.4 0 8 3.6 8 8v56c0 4.4-3.6 8-8 8zM208 420h-56c-4.4 0-8-3.6-8-8v-56c0-4.4 3.6-8 8-8h56c4.4 0 8 3.6 8 8v56c0 4.4-3.6 8-8 8zM872 88h-56c-4.4 0-8-3.6-8-8v-56c0-4.4 3.6-8 8-8h56c4.4 0 8 3.6 8 8v56c0 4.4-3.6 8-8 8zM872 420h-56c-4.4 0-8-3.6-8-8v-56c0-4.4 3.6-8 8-8h56c4.4 0 8 3.6 8 8v56c0 4.4-3.6 8-8 8zM374 88h-56c-4.4 0-8-3.6-8-8v-56c0-4.4 3.6-8 8-8h56c4.4 0 8 3.6 8 8v56c0 4.4-3.6 8-8 8zM374 420h-56c-4.4 0-8-3.6-8-8v-56c0-4.4 3.6-8 8-8h56c4.4 0 8 3.6 8 8v56c0 4.4-3.6 8-8 8zM706 88h-56c-4.4 0-8-3.6-8-8v-56c0-4.4 3.6-8 8-8h56c4.4 0 8 3.6 8 8v56c0 4.4-3.6 8-8 8zM706 420h-56c-4.4 0-8-3.6-8-8v-56c0-4.4 3.6-8 8-8h56c4.4 0 8 3.6 8 8v56c0 4.4-3.6 8-8 8z"  horiz-adv-x="1024" />

    
    <glyph glyph-name="radius-bottomleft" unicode="&#59334;" d="M712 72h-56c-4.4 0-8-3.6-8-8v-56c0-4.4 3.6-8 8-8h56c4.4 0 8 3.6 8 8v56c0 4.4-3.6 8-8 8zM714 768h-56c-4.4 0-8-3.6-8-8v-56c0-4.4 3.6-8 8-8h56c4.4 0 8 3.6 8 8v56c0 4.4-3.6 8-8 8zM136 522h56c4.4 0 8 3.6 8 8v56c0 4.4-3.6 8-8 8h-56c-4.4 0-8-3.6-8-8v-56c0-4.4 3.6-8 8-8zM136 696h56c4.4 0 8 3.6 8 8v56c0 4.4-3.6 8-8 8h-56c-4.4 0-8-3.6-8-8v-56c0-4.4 3.6-8 8-8zM888 72h-56c-4.4 0-8-3.6-8-8v-56c0-4.4 3.6-8 8-8h56c4.4 0 8 3.6 8 8v56c0 4.4-3.6 8-8 8zM888 246h-56c-4.4 0-8-3.6-8-8v-56c0-4.4 3.6-8 8-8h56c4.4 0 8 3.6 8 8v56c0 4.4-3.6 8-8 8zM888 420h-56c-4.4 0-8-3.6-8-8v-56c0-4.4 3.6-8 8-8h56c4.4 0 8 3.6 8 8v56c0 4.4-3.6 8-8 8zM888 594h-56c-4.4 0-8-3.6-8-8v-56c0-4.4 3.6-8 8-8h56c4.4 0 8 3.6 8 8v56c0 4.4-3.6 8-8 8zM888 768h-56c-4.4 0-8-3.6-8-8v-56c0-4.4 3.6-8 8-8h56c4.4 0 8 3.6 8 8v56c0 4.4-3.6 8-8 8zM540 768h-56c-4.4 0-8-3.6-8-8v-56c0-4.4 3.6-8 8-8h56c4.4 0 8 3.6 8 8v56c0 4.4-3.6 8-8 8zM310 696h56c4.4 0 8 3.6 8 8v56c0 4.4-3.6 8-8 8h-56c-4.4 0-8-3.6-8-8v-56c0-4.4 3.6-8 8-8zM540 72H358c-87.3 0-158 70.7-158 158V412c0 4.4-3.6 8-8 8h-56c-4.4 0-8-3.6-8-8v-182c0-127 103-230 230-230h182c4.4 0 8 3.6 8 8v56c0 4.4-3.6 8-8 8z"  horiz-adv-x="1024" />

    
    <glyph glyph-name="radius-bottomright" unicode="&#59335;" d="M368 72h-56c-4.4 0-8-3.6-8-8v-56c0-4.4 3.6-8 8-8h56c4.4 0 8 3.6 8 8v56c0 4.4-3.6 8-8 8zM310 696h56c4.4 0 8 3.6 8 8v56c0 4.4-3.6 8-8 8h-56c-4.4 0-8-3.6-8-8v-56c0-4.4 3.6-8 8-8zM888 594h-56c-4.4 0-8-3.6-8-8v-56c0-4.4 3.6-8 8-8h56c4.4 0 8 3.6 8 8v56c0 4.4-3.6 8-8 8zM888 768h-56c-4.4 0-8-3.6-8-8v-56c0-4.4 3.6-8 8-8h56c4.4 0 8 3.6 8 8v56c0 4.4-3.6 8-8 8zM192 72h-56c-4.4 0-8-3.6-8-8v-56c0-4.4 3.6-8 8-8h56c4.4 0 8 3.6 8 8v56c0 4.4-3.6 8-8 8zM192 246h-56c-4.4 0-8-3.6-8-8v-56c0-4.4 3.6-8 8-8h56c4.4 0 8 3.6 8 8v56c0 4.4-3.6 8-8 8zM192 420h-56c-4.4 0-8-3.6-8-8v-56c0-4.4 3.6-8 8-8h56c4.4 0 8 3.6 8 8v56c0 4.4-3.6 8-8 8zM192 594h-56c-4.4 0-8-3.6-8-8v-56c0-4.4 3.6-8 8-8h56c4.4 0 8 3.6 8 8v56c0 4.4-3.6 8-8 8zM192 768h-56c-4.4 0-8-3.6-8-8v-56c0-4.4 3.6-8 8-8h56c4.4 0 8 3.6 8 8v56c0 4.4-3.6 8-8 8zM484 696h56c4.4 0 8 3.6 8 8v56c0 4.4-3.6 8-8 8h-56c-4.4 0-8-3.6-8-8v-56c0-4.4 3.6-8 8-8zM658 696h56c4.4 0 8 3.6 8 8v56c0 4.4-3.6 8-8 8h-56c-4.4 0-8-3.6-8-8v-56c0-4.4 3.6-8 8-8zM888 420h-56c-4.4 0-8-3.6-8-8v-182c0-87.3-70.7-158-158-158H484c-4.4 0-8-3.6-8-8v-56c0-4.4 3.6-8 8-8h182c127 0 230 103 230 230V412c0 4.4-3.6 8-8 8z"  horiz-adv-x="1024" />

    
    <glyph glyph-name="radius-upleft" unicode="&#59336;" d="M656 696h56c4.4 0 8 3.6 8 8v56c0 4.4-3.6 8-8 8h-56c-4.4 0-8-3.6-8-8v-56c0-4.4 3.6-8 8-8zM714 72h-56c-4.4 0-8-3.6-8-8v-56c0-4.4 3.6-8 8-8h56c4.4 0 8 3.6 8 8v56c0 4.4-3.6 8-8 8zM192 246h-56c-4.4 0-8-3.6-8-8v-56c0-4.4 3.6-8 8-8h56c4.4 0 8 3.6 8 8v56c0 4.4-3.6 8-8 8zM192 72h-56c-4.4 0-8-3.6-8-8v-56c0-4.4 3.6-8 8-8h56c4.4 0 8 3.6 8 8v56c0 4.4-3.6 8-8 8zM888 768h-56c-4.4 0-8-3.6-8-8v-56c0-4.4 3.6-8 8-8h56c4.4 0 8 3.6 8 8v56c0 4.4-3.6 8-8 8zM888 594h-56c-4.4 0-8-3.6-8-8v-56c0-4.4 3.6-8 8-8h56c4.4 0 8 3.6 8 8v56c0 4.4-3.6 8-8 8zM888 420h-56c-4.4 0-8-3.6-8-8v-56c0-4.4 3.6-8 8-8h56c4.4 0 8 3.6 8 8v56c0 4.4-3.6 8-8 8zM888 246h-56c-4.4 0-8-3.6-8-8v-56c0-4.4 3.6-8 8-8h56c4.4 0 8 3.6 8 8v56c0 4.4-3.6 8-8 8zM888 72h-56c-4.4 0-8-3.6-8-8v-56c0-4.4 3.6-8 8-8h56c4.4 0 8 3.6 8 8v56c0 4.4-3.6 8-8 8zM540 72h-56c-4.4 0-8-3.6-8-8v-56c0-4.4 3.6-8 8-8h56c4.4 0 8 3.6 8 8v56c0 4.4-3.6 8-8 8zM366 72h-56c-4.4 0-8-3.6-8-8v-56c0-4.4 3.6-8 8-8h56c4.4 0 8 3.6 8 8v56c0 4.4-3.6 8-8 8zM540 768H358c-127 0-230-103-230-230v-182c0-4.4 3.6-8 8-8h56c4.4 0 8 3.6 8 8V538c0 87.3 70.7 158 158 158h182c4.4 0 8 3.6 8 8v56c0 4.4-3.6 8-8 8z"  horiz-adv-x="1024" />

    
    <glyph glyph-name="radius-upright" unicode="&#59337;" d="M368 768h-56c-4.4 0-8-3.6-8-8v-56c0-4.4 3.6-8 8-8h56c4.4 0 8 3.6 8 8v56c0 4.4-3.6 8-8 8zM366 72h-56c-4.4 0-8-3.6-8-8v-56c0-4.4 3.6-8 8-8h56c4.4 0 8 3.6 8 8v56c0 4.4-3.6 8-8 8zM888 246h-56c-4.4 0-8-3.6-8-8v-56c0-4.4 3.6-8 8-8h56c4.4 0 8 3.6 8 8v56c0 4.4-3.6 8-8 8zM888 72h-56c-4.4 0-8-3.6-8-8v-56c0-4.4 3.6-8 8-8h56c4.4 0 8 3.6 8 8v56c0 4.4-3.6 8-8 8zM192 768h-56c-4.4 0-8-3.6-8-8v-56c0-4.4 3.6-8 8-8h56c4.4 0 8 3.6 8 8v56c0 4.4-3.6 8-8 8zM192 594h-56c-4.4 0-8-3.6-8-8v-56c0-4.4 3.6-8 8-8h56c4.4 0 8 3.6 8 8v56c0 4.4-3.6 8-8 8zM192 420h-56c-4.4 0-8-3.6-8-8v-56c0-4.4 3.6-8 8-8h56c4.4 0 8 3.6 8 8v56c0 4.4-3.6 8-8 8zM192 246h-56c-4.4 0-8-3.6-8-8v-56c0-4.4 3.6-8 8-8h56c4.4 0 8 3.6 8 8v56c0 4.4-3.6 8-8 8zM192 72h-56c-4.4 0-8-3.6-8-8v-56c0-4.4 3.6-8 8-8h56c4.4 0 8 3.6 8 8v56c0 4.4-3.6 8-8 8zM540 72h-56c-4.4 0-8-3.6-8-8v-56c0-4.4 3.6-8 8-8h56c4.4 0 8 3.6 8 8v56c0 4.4-3.6 8-8 8zM714 72h-56c-4.4 0-8-3.6-8-8v-56c0-4.4 3.6-8 8-8h56c4.4 0 8 3.6 8 8v56c0 4.4-3.6 8-8 8zM666 768H484c-4.4 0-8-3.6-8-8v-56c0-4.4 3.6-8 8-8h182c87.3 0 158-70.7 158-158v-182c0-4.4 3.6-8 8-8h56c4.4 0 8 3.6 8 8V538c0 127-103 230-230 230z"  horiz-adv-x="1024" />

    
    <glyph glyph-name="radius-setting" unicode="&#59338;" d="M396 756h-56c-4.4 0-8-3.6-8-8v-56c0-4.4 3.6-8 8-8h56c4.4 0 8 3.6 8 8v56c0 4.4-3.6 8-8 8zM352 72h-56c-4.4 0-8-3.6-8-8v-56c0-4.4 3.6-8 8-8h56c4.4 0 8 3.6 8 8v56c0 4.4-3.6 8-8 8zM876 276h-56c-4.4 0-8-3.6-8-8v-56c0-4.4 3.6-8 8-8h56c4.4 0 8 3.6 8 8v56c0 4.4-3.6 8-8 8zM192 552h-56c-4.4 0-8-3.6-8-8v-56c0-4.4 3.6-8 8-8h56c4.4 0 8 3.6 8 8v56c0 4.4-3.6 8-8 8zM192 392h-56c-4.4 0-8-3.6-8-8v-56c0-4.4 3.6-8 8-8h56c4.4 0 8 3.6 8 8v56c0 4.4-3.6 8-8 8zM192 232h-56c-4.4 0-8-3.6-8-8v-56c0-4.4 3.6-8 8-8h56c4.4 0 8 3.6 8 8v56c0 4.4-3.6 8-8 8zM192 72h-56c-4.4 0-8-3.6-8-8v-56c0-4.4 3.6-8 8-8h56c4.4 0 8 3.6 8 8v56c0 4.4-3.6 8-8 8zM512 72h-56c-4.4 0-8-3.6-8-8v-56c0-4.4 3.6-8 8-8h56c4.4 0 8 3.6 8 8v56c0 4.4-3.6 8-8 8zM672 72h-56c-4.4 0-8-3.6-8-8v-56c0-4.4 3.6-8 8-8h56c4.4 0 8 3.6 8 8v56c0 4.4-3.6 8-8 8zM812 356c0-4.4 3.6-8 8-8h56c4.4 0 8 3.6 8 8V526c0 127-103 230-230 230H484c-4.4 0-8-3.6-8-8v-56c0-4.4 3.6-8 8-8h170c87.3 0 158-70.7 158-158v-170zM236 800H92c-4.4 0-8-3.6-8-8v-144c0-4.4 3.6-8 8-8h144c4.4 0 8 3.6 8 8V792c0 4.4-3.6 8-8 8z m-48-101.6c0-1.3-1.1-2.4-2.4-2.4h-43.2c-1.3 0-2.4 1.1-2.4 2.4v43.2c0 1.3 1.1 2.4 2.4 2.4h43.2c1.3 0 2.4-1.1 2.4-2.4v-43.2zM920 116H776c-4.4 0-8-3.6-8-8v-144c0-4.4 3.6-8 8-8h144c4.4 0 8 3.6 8 8V108c0 4.4-3.6 8-8 8z m-48-101.6c0-1.3-1.1-2.4-2.4-2.4h-43.2c-1.3 0-2.4 1.1-2.4 2.4v43.2c0 1.3 1.1 2.4 2.4 2.4h43.2c1.3 0 2.4-1.1 2.4-2.4v-43.2z"  horiz-adv-x="1024" />

    
    <glyph glyph-name="adduser" unicode="&#59339;" d="M678.3 253.6c24.2 13 51.9 20.4 81.4 20.4h0.1c3 0 4.4 3.6 2.2 5.6-30.8 27.6-65.6 49.7-103.7 65.8-0.4 0.2-0.8 0.3-1.2 0.5C719.2 391 759.6 464.3 759.6 547c0 137-110.8 248-247.5 248S264.7 684 264.7 547c0-82.7 40.4-156 102.6-201.1-0.4-0.2-0.8-0.3-1.2-0.5-44.7-18.9-84.8-46-119.3-80.6-34.5-34.5-61.5-74.7-80.4-119.5C147.9 101.5 138 55 137 7.2c-0.1-4.5 3.5-8.2 8-8.2h59.9c4.3 0 7.9 3.5 8 7.8 2 77.2 32.9 149.5 87.6 204.3C357 267.8 432.2 299 512.2 299c56.7 0 111.1-15.7 158-45.1 2.5-1.5 5.5-1.7 8.1-0.3zM512.2 375c-45.8 0-88.9 17.9-121.4 50.4-32.4 32.5-50.3 75.7-50.3 121.6 0 45.9 17.9 89.1 50.3 121.6S466.3 719 512.2 719s88.9-17.9 121.4-50.4c32.4-32.5 50.3-75.7 50.3-121.6 0-45.9-17.9-89.1-50.3-121.6C601.1 392.9 558 375 512.2 375zM880 137h-84v84c0 4.4-3.6 8-8 8h-56c-4.4 0-8-3.6-8-8v-84h-84c-4.4 0-8-3.6-8-8v-56c0-4.4 3.6-8 8-8h84v-84c0-4.4 3.6-8 8-8h56c4.4 0 8 3.6 8 8v84h84c4.4 0 8 3.6 8 8v56c0 4.4-3.6 8-8 8z"  horiz-adv-x="1024" />

    
    <glyph glyph-name="deleteteam" unicode="&#59340;" d="M888 112H664c-4.4 0-8-3.6-8-8v-48c0-4.4 3.6-8 8-8h224c4.4 0 8 3.6 8 8v48c0 4.4-3.6 8-8 8zM373.5 385.6c-0.9 8.7-1.4 17.5-1.4 26.4 0 15.9 1.5 31.4 4.3 46.5 0.7 3.6-1.2 7.3-4.5 8.8-13.6 6.1-26.1 14.5-36.9 25.1-25.8 25.2-39.7 59.3-38.7 95.4 0.9 32.1 13.8 62.6 36.3 85.6 24.7 25.3 57.9 39.1 93.2 38.7 31.9-0.3 62.7-12.6 86-34.4 7.9-7.4 14.7-15.6 20.4-24.4 2-3.1 5.9-4.4 9.3-3.2 17.6 6.1 36.2 10.4 55.3 12.4 5.6 0.6 8.8 6.6 6.3 11.6-32.5 64.3-98.9 108.7-175.7 109.9-110.9 1.7-203.3-89.2-203.3-199.9 0-62.8 28.9-118.8 74.2-155.5-31.8-14.7-61.1-35-86.5-60.4-54.8-54.7-85.8-126.9-87.8-204-0.1-4.5 3.5-8.2 8-8.2h56.1c4.3 0 7.9 3.4 8 7.7 1.9 58 25.4 112.3 66.7 153.5 29.4 29.4 65.4 49.8 104.7 59.7 3.9 1 6.5 4.7 6 8.7zM824 412c0 109.4-87.9 198.3-196.9 200C516.3 613.7 424 522.8 424 412c0-62.8 29-118.8 74.2-155.5-31.7-14.7-60.9-34.9-86.4-60.4C357 141.4 326 69.2 324-7.8c-0.1-4.5 3.5-8.2 8-8.2h56c4.3 0 7.9 3.4 8 7.7 1.9 58 25.4 112.3 66.7 153.5C505.8 188.3 563 212 624 212c110.4 0 200 89.5 200 200z m-109.5-90.5C690.3 297.3 658.2 284 624 284s-66.3 13.3-90.5 37.5C509 346 495.7 378.6 496 413.3c0.3 32.8 13.4 64.5 36.3 88 24 24.6 56.1 38.3 90.4 38.7 33.9 0.3 66.8-12.9 91-36.6 24.8-24.3 38.4-56.8 38.4-91.4-0.1-34.2-13.4-66.3-37.6-90.5z"  horiz-adv-x="1024" />

    
    <glyph glyph-name="deleteuser" unicode="&#59341;" d="M678.3 240.6c24.2 13 51.9 20.4 81.4 20.4h0.1c3 0 4.4 3.6 2.2 5.6-30.8 27.6-65.6 49.7-103.7 65.8-0.4 0.2-0.8 0.3-1.2 0.5C719.2 378 759.6 451.3 759.6 534c0 137-110.8 248-247.5 248S264.7 671 264.7 534c0-82.7 40.4-156 102.6-201.1-0.4-0.2-0.8-0.3-1.2-0.5-44.7-18.9-84.8-46-119.3-80.6-34.5-34.5-61.5-74.7-80.4-119.5C147.9 88.5 138 42 137-5.8c-0.1-4.5 3.5-8.2 8-8.2h59.9c4.3 0 7.9 3.5 8 7.8 2 77.2 32.9 149.5 87.6 204.3C357 254.8 432.2 286 512.2 286c56.7 0 111.1-15.7 158-45.1 2.5-1.5 5.5-1.7 8.1-0.3zM512.2 362c-45.8 0-88.9 17.9-121.4 50.4-32.4 32.5-50.3 75.7-50.3 121.6 0 45.9 17.9 89.1 50.3 121.6S466.3 706 512.2 706s88.9-17.9 121.4-50.4c32.4-32.5 50.3-75.7 50.3-121.6 0-45.9-17.9-89.1-50.3-121.6C601.1 379.9 558 362 512.2 362zM880 124H640c-4.4 0-8-3.6-8-8v-56c0-4.4 3.6-8 8-8h240c4.4 0 8 3.6 8 8v56c0 4.4-3.6 8-8 8z"  horiz-adv-x="1024" />

    
    <glyph glyph-name="addteam" unicode="&#59342;" d="M892 124h-80v80c0 4.4-3.6 8-8 8h-48c-4.4 0-8-3.6-8-8v-80h-80c-4.4 0-8-3.6-8-8v-48c0-4.4 3.6-8 8-8h80v-80c0-4.4 3.6-8 8-8h48c4.4 0 8 3.6 8 8v80h80c4.4 0 8 3.6 8 8v48c0 4.4-3.6 8-8 8zM373.5 397.6c-0.9 8.7-1.4 17.5-1.4 26.4 0 15.9 1.5 31.4 4.3 46.5 0.7 3.6-1.2 7.3-4.5 8.8-13.6 6.1-26.1 14.5-36.9 25.1-25.8 25.2-39.7 59.3-38.7 95.4 0.9 32.1 13.8 62.6 36.3 85.6 24.7 25.3 57.9 39.1 93.2 38.7 31.9-0.3 62.7-12.6 86-34.4 7.9-7.4 14.7-15.6 20.4-24.4 2-3.1 5.9-4.4 9.3-3.2 17.6 6.1 36.2 10.4 55.3 12.4 5.6 0.6 8.8 6.6 6.3 11.6-32.5 64.3-98.9 108.7-175.7 109.9-110.8 1.7-203.2-89.2-203.2-200 0-62.8 28.9-118.8 74.2-155.5-31.8-14.7-61.1-35-86.5-60.4-54.8-54.7-85.8-126.9-87.8-204-0.1-4.5 3.5-8.2 8-8.2h56.1c4.3 0 7.9 3.4 8 7.7 1.9 58 25.4 112.3 66.7 153.5 29.4 29.4 65.4 49.8 104.7 59.7 3.8 1.1 6.4 4.8 5.9 8.8zM824 424c0 109.4-87.9 198.3-196.9 200C516.3 625.7 424 534.8 424 424c0-62.8 29-118.8 74.2-155.5-31.7-14.7-60.9-34.9-86.4-60.4C357 153.4 326 81.2 324 4.2c-0.1-4.5 3.5-8.2 8-8.2h56c4.3 0 7.9 3.4 8 7.7 1.9 58 25.4 112.3 66.7 153.5C505.8 200.3 563 224 624 224c110.4 0 200 89.5 200 200z m-109.5-90.5C690.3 309.3 658.2 296 624 296s-66.3 13.3-90.5 37.5C509 358 495.7 390.6 496 425.3c0.3 32.8 13.4 64.5 36.3 88 24 24.6 56.1 38.3 90.4 38.7 33.9 0.3 66.8-12.9 91-36.6 24.8-24.3 38.4-56.8 38.4-91.4-0.1-34.2-13.4-66.3-37.6-90.5z"  horiz-adv-x="1024" />

    
    <glyph glyph-name="user" unicode="&#59343;" d="M858.5 132.4c-18.9 44.8-46.1 85-80.6 119.5-34.5 34.5-74.7 61.6-119.5 80.6-0.4 0.2-0.8 0.3-1.2 0.5C719.5 378 760 451.3 760 534c0 137-111 248-248 248S264 671 264 534c0-82.7 40.5-156 102.8-201.1-0.4-0.2-0.8-0.3-1.2-0.5-44.8-18.9-85-46-119.5-80.6-34.5-34.5-61.6-74.7-80.6-119.5C146.9 88.5 137 42 136-5.8c-0.1-4.5 3.5-8.2 8-8.2h60c4.4 0 7.9 3.5 8 7.8 2 77.2 33 149.5 87.8 204.3 56.7 56.7 132 87.9 212.2 87.9s155.5-31.2 212.2-87.9C779 143.3 810 71 812-6.2c0.1-4.4 3.6-7.8 8-7.8h60c4.5 0 8.1 3.7 8 8.2-1 47.8-10.9 94.3-29.5 138.2zM512 362c-45.9 0-89.1 17.9-121.6 50.4S340 488.1 340 534c0 45.9 17.9 89.1 50.4 121.6S466.1 706 512 706s89.1-17.9 121.6-50.4S684 579.9 684 534c0-45.9-17.9-89.1-50.4-121.6S557.9 362 512 362z"  horiz-adv-x="1024" />

    
    <glyph glyph-name="team" unicode="&#59344;" d="M824.2 196.1c-25.4 25.4-54.7 45.7-86.4 60.4C783.1 293.2 812 349.2 812 412c0 110.8-92.4 201.7-203.2 200-109.1-1.7-197-90.6-197-200 0-62.8 29-118.8 74.2-155.5-31.7-14.7-60.9-34.9-86.4-60.4C345 141.4 314 69.2 312-7.8c-0.1-4.5 3.5-8.2 8-8.2h56c4.3 0 7.9 3.4 8 7.7 1.9 58 25.4 112.3 66.7 153.5C493.8 188.3 551.1 212 612 212c60.9 0 118.2-23.7 161.3-66.8C814.5 104 838 49.7 840-8.3c0.1-4.3 3.7-7.7 8-7.7h56c4.5 0 8.1 3.7 8 8.2-2 77-33 149.2-87.8 203.9zM612 284c-34.2 0-66.4 13.3-90.5 37.5-24.5 24.5-37.9 57.1-37.5 91.8 0.3 32.8 13.4 64.5 36.3 88 24 24.6 56.1 38.3 90.4 38.7 33.9 0.3 66.8-12.9 91-36.6 24.8-24.3 38.4-56.8 38.4-91.4 0-34.2-13.3-66.3-37.5-90.5-24.2-24.2-56.4-37.5-90.6-37.5zM361.5 385.6c-0.9 8.7-1.4 17.5-1.4 26.4 0 15.9 1.5 31.4 4.3 46.5 0.7 3.6-1.2 7.3-4.5 8.8-13.6 6.1-26.1 14.5-36.9 25.1-25.8 25.2-39.7 59.3-38.7 95.4 0.9 32.1 13.8 62.6 36.3 85.6 24.7 25.3 57.9 39.1 93.2 38.7 31.9-0.3 62.7-12.6 86-34.4 7.9-7.4 14.7-15.6 20.4-24.4 2-3.1 5.9-4.4 9.3-3.2 17.6 6.1 36.2 10.4 55.3 12.4 5.6 0.6 8.8 6.6 6.3 11.6-32.5 64.3-98.9 108.7-175.7 109.9-110.9 1.7-203.3-89.2-203.3-199.9 0-62.8 28.9-118.8 74.2-155.5-31.8-14.7-61.1-35-86.5-60.4-54.8-54.7-85.8-126.9-87.8-204-0.1-4.5 3.5-8.2 8-8.2h56.1c4.3 0 7.9 3.4 8 7.7 1.9 58 25.4 112.3 66.7 153.5 29.4 29.4 65.4 49.8 104.7 59.7 3.9 1 6.5 4.7 6 8.7z"  horiz-adv-x="1024" />

    
    <glyph glyph-name="areachart" unicode="&#59345;" d="M888 104H200V728c0 4.4-3.6 8-8 8h-56c-4.4 0-8-3.6-8-8v-688c0-4.4 3.6-8 8-8h752c4.4 0 8 3.6 8 8v56c0 4.4-3.6 8-8 8zM272 168h536c4.4 0 8 3.6 8 8V612c0 7.2-8.7 10.7-13.7 5.7L592 407.4l-125.4 124c-3.1 3.1-8.2 3.1-11.3 0l-189-189.6c-1.5-1.5-2.3-3.5-2.3-5.6V176c0-4.4 3.6-8 8-8z"  horiz-adv-x="1024" />

    
    <glyph glyph-name="linechart" unicode="&#59346;" d="M888 104H200V728c0 4.4-3.6 8-8 8h-56c-4.4 0-8-3.6-8-8v-688c0-4.4 3.6-8 8-8h752c4.4 0 8 3.6 8 8v56c0 4.4-3.6 8-8 8zM305.8 258.3c3.1-3.1 8.1-3.1 11.3 0l138.3 137.6L583 267.5c3.1-3.1 8.2-3.1 11.3 0l275.4 275.3c3.1 3.1 3.1 8.2 0 11.3l-39.6 39.6c-3.1 3.1-8.2 3.1-11.3 0l-230-229.9L461.4 492c-3.1 3.1-8.2 3.1-11.3 0L266.3 309.3c-3.1-3.1-3.1-8.2 0-11.3l39.5-39.7z"  horiz-adv-x="1024" />

    
    <glyph glyph-name="barchart" unicode="&#59347;" d="M888 104H200V728c0 4.4-3.6 8-8 8h-56c-4.4 0-8-3.6-8-8v-688c0-4.4 3.6-8 8-8h752c4.4 0 8 3.6 8 8v56c0 4.4-3.6 8-8 8zM288 184h56c4.4 0 8 3.6 8 8V336c0 4.4-3.6 8-8 8h-56c-4.4 0-8-3.6-8-8v-144c0-4.4 3.6-8 8-8zM440 184h56c4.4 0 8 3.6 8 8V512c0 4.4-3.6 8-8 8h-56c-4.4 0-8-3.6-8-8v-320c0-4.4 3.6-8 8-8zM592 184h56c4.4 0 8 3.6 8 8V434c0 4.4-3.6 8-8 8h-56c-4.4 0-8-3.6-8-8v-242c0-4.4 3.6-8 8-8zM744 184h56c4.4 0 8 3.6 8 8V592c0 4.4-3.6 8-8 8h-56c-4.4 0-8-3.6-8-8v-400c0-4.4 3.6-8 8-8z"  horiz-adv-x="1024" />

    
    <glyph glyph-name="pointmap" unicode="&#59348;" d="M888 104H200V728c0 4.4-3.6 8-8 8h-56c-4.4 0-8-3.6-8-8v-688c0-4.4 3.6-8 8-8h752c4.4 0 8 3.6 8 8v56c0 4.4-3.6 8-8 8zM352 292m-64 0a64 64 0 1 1 128 0 64 64 0 1 1-128 0ZM454 516m-48 0a48 48 0 1 1 96 0 48 48 0 1 1-96 0ZM660 288m-96 0a96 96 0 1 1 192 0 96 96 0 1 1-192 0ZM768 602m-56 0a56 56 0 1 1 112 0 56 56 0 1 1-112 0Z"  horiz-adv-x="1024" />

    
    <glyph glyph-name="container" unicode="&#59349;" d="M832 832H192c-17.7 0-32-14.3-32-32v-832c0-17.7 14.3-32 32-32h640c17.7 0 32 14.3 32 32V800c0 17.7-14.3 32-32 32z m-40-824H232V209h97.9c11.6-32.8 32-62.3 59.1-84.7 34.5-28.5 78.2-44.3 123-44.3s88.5 15.7 123 44.3c27.1 22.4 47.5 51.9 59.1 84.7H792v63H643.6l-5.2-24.7C626.4 187.5 573.2 144 512 144s-114.4 43.5-126.5 103.3l-5.2 24.7H232V760h560v-752zM320 555h384c4.4 0 8 3.6 8 8v48c0 4.4-3.6 8-8 8H320c-4.4 0-8-3.6-8-8v-48c0-4.4 3.6-8 8-8zM320 395h384c4.4 0 8 3.6 8 8v48c0 4.4-3.6 8-8 8H320c-4.4 0-8-3.6-8-8v-48c0-4.4 3.6-8 8-8z"  horiz-adv-x="1024" />

    
    <glyph glyph-name="database" unicode="&#59350;" d="M832 832H192c-17.7 0-32-14.3-32-32v-832c0-17.7 14.3-32 32-32h640c17.7 0 32 14.3 32 32V800c0 17.7-14.3 32-32 32z m-600-72h560v-208H232V760z m560-480H232V488h560v-208z m0-272H232V216h560v-208zM344 656m-40 0a40 40 0 1 1 80 0 40 40 0 1 1-80 0ZM344 384m-40 0a40 40 0 1 1 80 0 40 40 0 1 1-80 0ZM344 112m-40 0a40 40 0 1 1 80 0 40 40 0 1 1-80 0Z"  horiz-adv-x="1024" />

    
    <glyph glyph-name="sever" unicode="&#59351;" d="M832 832H192c-17.7 0-32-14.3-32-32v-832c0-17.7 14.3-32 32-32h640c17.7 0 32 14.3 32 32V800c0 17.7-14.3 32-32 32z m-600-72h560v-208H232V760z m560-480H232V488h560v-208z m0-272H232V216h560v-208zM496 688H312c-4.4 0-8-3.6-8-8v-48c0-4.4 3.6-8 8-8h184c4.4 0 8 3.6 8 8v48c0 4.4-3.6 8-8 8zM312 352h184c4.4 0 8 3.6 8 8v48c0 4.4-3.6 8-8 8H312c-4.4 0-8-3.6-8-8v-48c0-4.4 3.6-8 8-8zM680 108m-40 0a40 40 0 1 1 80 0 40 40 0 1 1-80 0Z"  horiz-adv-x="1024" />

    
    <glyph glyph-name="mobile" unicode="&#59352;" d="M744 834H280c-35.3 0-64-28.7-64-64v-768c0-35.3 28.7-64 64-64h464c35.3 0 64 28.7 64 64V770c0 35.3-28.7 64-64 64z m-8-824H288V762h448v-752zM512 112m-40 0a40 40 0 1 1 80 0 40 40 0 1 1-80 0Z"  horiz-adv-x="1024" />

    
    <glyph glyph-name="tablet" unicode="&#59353;" d="M800 832H224c-35.3 0-64-28.7-64-64v-768c0-35.3 28.7-64 64-64h576c35.3 0 64 28.7 64 64V768c0 35.3-28.7 64-64 64z m-8-824H232V760h560v-752zM512 112m-40 0a40 40 0 1 1 80 0 40 40 0 1 1-80 0Z"  horiz-adv-x="1024" />

    
    <glyph glyph-name="redenvelope" unicode="&#59354;" d="M440.6 433.4c-1.4 2.8-4.3 4.6-7.5 4.6h-48.8c-1.3 0-2.6-0.4-3.9-1-4.1-2.2-5.6-7.3-3.4-11.4l87.4-161.1H419c-4.6 0-8.4-3.8-8.4-8.4V231c0-4.6 3.8-8.4 8.4-8.4h63V194h-63c-4.6 0-8.4-3.8-8.4-8.4v-25.1c0-4.6 3.8-8.4 8.4-8.4h63v-49.9c0-4.6 3.8-8.4 8.4-8.4h43.7c4.6 0 8.4 3.8 8.4 8.4v49.9h63.3c4.7 0 8.4 3.8 8.2 8.5v25c0 4.6-3.8 8.4-8.4 8.4h-63.3v28.6h63.3c4.6 0 8.4 3.8 8.4 8.4v25.1c0 4.6-3.8 8.4-8.4 8.4h-45.9l87.2 161c0.7 1.2 1 2.6 1 4 0 4.6-3.8 8.4-8.4 8.4h-47.8c-3.1 0-6-1.8-7.5-4.6l-71.9-141.9-71.7 142zM832 832H192c-17.7 0-32-14.3-32-32v-832c0-17.7 14.3-32 32-32h640c17.7 0 32 14.3 32 32V800c0 17.7-14.3 32-32 32z m-40-824H232V702.9l260.3-204.1c11.6-9.1 27.9-9.1 39.5 0L792 702.9V8z m0 751.3h-31.7L512 564.7 263.7 759.3H232v0.7h560v-0.7z"  horiz-adv-x="1024" />

    
    <glyph glyph-name="book" unicode="&#59355;" d="M832 832H192c-17.7 0-32-14.3-32-32v-832c0-17.7 14.3-32 32-32h640c17.7 0 32 14.3 32 32V800c0 17.7-14.3 32-32 32z m-260-72h96v-209.9L621.5 584 572 548.6V760z m220-752H232V760h280v-296.9c0-3.3 1-6.6 3-9.3 5.1-7.2 15.1-8.9 22.3-3.7l83.8 59.9 81.4-59.4c2.7-2 6-3.1 9.4-3.1 8.8 0 16 7.2 16 16V760h64v-752z"  horiz-adv-x="1024" />

    
    <glyph glyph-name="filedone" unicode="&#59356;" d="M688 584v48c0 4.4-3.6 8-8 8H296c-4.4 0-8-3.6-8-8v-48c0-4.4 3.6-8 8-8h384c4.4 0 8 3.6 8 8zM296 496c-4.4 0-8-3.6-8-8v-48c0-4.4 3.6-8 8-8h184c4.4 0 8 3.6 8 8v48c0 4.4-3.6 8-8 8H296zM672 380c-119.3 0-216-96.7-216-216s96.7-216 216-216 216 96.7 216 216-96.7 216-216 216z m107.5-323.5C750.8 27.8 712.6 12 672 12s-78.8 15.8-107.5 44.5C535.8 85.2 520 123.4 520 164s15.8 78.8 44.5 107.5C593.2 300.2 631.4 316 672 316s78.8-15.8 107.5-44.5C808.2 242.8 824 204.6 824 164s-15.8-78.8-44.5-107.5zM761 240h-44.3c-2.6 0-5-1.2-6.5-3.3l-63.5-87.8-23.1 31.9c-1.5 2.1-3.9 3.3-6.5 3.3H573c-6.5 0-10.3-7.4-6.5-12.7l73.8-102.1c3.2-4.4 9.7-4.4 12.9 0l114.2 158c3.9 5.3 0.1 12.7-6.4 12.7zM440 44H208V748h560v-344c0-4.4 3.6-8 8-8h56c4.4 0 8 3.6 8 8V788c0 17.7-14.3 32-32 32H168c-17.7 0-32-14.3-32-32v-784c0-17.7 14.3-32 32-32h272c4.4 0 8 3.6 8 8v56c0 4.4-3.6 8-8 8z"  horiz-adv-x="1024" />

    
    <glyph glyph-name="reconciliation" unicode="&#59357;" d="M676 331c-50.8 0-92-41.2-92-92s41.2-92 92-92 92 41.2 92 92-41.2 92-92 92z m0-126c-18.8 0-34 15.2-34 34s15.2 34 34 34 34-15.2 34-34-15.2-34-34-34zM880 728H668c0 30.9-25.1 56-56 56h-80c-30.9 0-56-25.1-56-56H264c-17.7 0-32-14.3-32-32v-200h-88c-17.7 0-32-14.3-32-32v-448c0-17.7 14.3-32 32-32h336c17.7 0 32 14.3 32 32v16h368c17.7 0 32 14.3 32 32V696c0 17.7-14.3 32-32 32z m-412-64h72v56h64v-56h72v-48H468v48z m-20-616H176V280h272v-232z m0 296H176v88h272v-88z m392-240H512V464c0 17.7-14.3 32-32 32H304V656h100v-104h336V656h100v-552zM704 488v-96c0-4.4 3.6-8 8-8h48c4.4 0 8 3.6 8 8v96c0 4.4-3.6 8-8 8h-48c-4.4 0-8-3.6-8-8zM592 384h48c4.4 0 8 3.6 8 8v56c0 4.4-3.6 8-8 8h-48c-4.4 0-8-3.6-8-8v-56c0-4.4 3.6-8 8-8z"  horiz-adv-x="1024" />

    
    <glyph glyph-name="file-exception" unicode="&#59358;" d="M688 584v48c0 4.4-3.6 8-8 8H296c-4.4 0-8-3.6-8-8v-48c0-4.4 3.6-8 8-8h384c4.4 0 8 3.6 8 8zM296 496c-4.4 0-8-3.6-8-8v-48c0-4.4 3.6-8 8-8h184c4.4 0 8 3.6 8 8v48c0 4.4-3.6 8-8 8H296zM672 380c-119.3 0-216-96.7-216-216s96.7-216 216-216 216 96.7 216 216-96.7 216-216 216z m107.5-323.5C750.8 27.8 712.6 12 672 12s-78.8 15.8-107.5 44.5C535.8 85.2 520 123.4 520 164s15.8 78.8 44.5 107.5C593.2 300.2 631.4 316 672 316s78.8-15.8 107.5-44.5C808.2 242.8 824 204.6 824 164s-15.8-78.8-44.5-107.5zM672 84m-32 0a32 32 0 1 1 64 0 32 32 0 1 1-64 0ZM652 148h40c4.4 0 8 3.6 8 8V268c0 4.4-3.6 8-8 8h-40c-4.4 0-8-3.6-8-8v-112c0-4.4 3.6-8 8-8zM440 44H208V748h560v-344c0-4.4 3.6-8 8-8h56c4.4 0 8 3.6 8 8V788c0 17.7-14.3 32-32 32H168c-17.7 0-32-14.3-32-32v-784c0-17.7 14.3-32 32-32h272c4.4 0 8 3.6 8 8v56c0 4.4-3.6 8-8 8z"  horiz-adv-x="1024" />

    
    <glyph glyph-name="filesync" unicode="&#59359;" d="M296 640c-4.4 0-8-3.6-8-8v-48c0-4.4 3.6-8 8-8h384c4.4 0 8 3.6 8 8v48c0 4.4-3.6 8-8 8H296zM488 440v48c0 4.4-3.6 8-8 8H296c-4.4 0-8-3.6-8-8v-48c0-4.4 3.6-8 8-8h184c4.4 0 8 3.6 8 8zM440 44H208V748h560v-344c0-4.4 3.6-8 8-8h56c4.4 0 8 3.6 8 8V788c0 17.7-14.3 32-32 32H168c-17.7 0-32-14.3-32-32v-784c0-17.7 14.3-32 32-32h272c4.4 0 8 3.6 8 8v56c0 4.4-3.6 8-8 8zM544.1 159.6c1.8 34.5 16.2 66.8 40.8 91.4 26.2 26.2 62 41 99.1 41 37.4 0 72.6-14.6 99.1-41 3.2-3.2 6.3-6.6 9.2-10.1L769.2 223c-5.3-4.1-3.5-12.5 3-14.1l93.3-22.5c5-1.2 9.8 2.6 9.9 7.7l0.6 95.4c0 6.7-7.6 10.5-12.9 6.4l-20.3-15.8C805.4 326.4 748.1 356 684 356c-109.9 0-199.6-86.9-204-195.7-0.2-4.5 3.5-8.3 8-8.3h48.1c4.3 0 7.8 3.3 8 7.6zM880 152h-48.1c-4.3 0-7.8-3.3-8-7.6-1.8-34.5-16.2-66.8-40.8-91.4-26.2-26.2-62-41-99.1-41-37.4 0-72.6 14.6-99.1 41-3.2 3.2-6.3 6.6-9.2 10.1l23.1 17.9c5.3 4.1 3.5 12.5-3 14.1l-93.3 22.5c-5 1.2-9.8-2.6-9.9-7.7l-0.6-95.4c0-6.7 7.6-10.5 12.9-6.4l20.3 15.8C562.6-22.4 619.9-52 684-52c109.9 0 199.6 86.9 204 195.7 0.2 4.5-3.5 8.3-8 8.3z"  horiz-adv-x="1024" />

    
    <glyph glyph-name="filesearch" unicode="&#59360;" d="M688 584v48c0 4.4-3.6 8-8 8H296c-4.4 0-8-3.6-8-8v-48c0-4.4 3.6-8 8-8h384c4.4 0 8 3.6 8 8zM296 496c-4.4 0-8-3.6-8-8v-48c0-4.4 3.6-8 8-8h184c4.4 0 8 3.6 8 8v48c0 4.4-3.6 8-8 8H296zM440 44H208V748h560v-344c0-4.4 3.6-8 8-8h56c4.4 0 8 3.6 8 8V788c0 17.7-14.3 32-32 32H168c-17.7 0-32-14.3-32-32v-784c0-17.7 14.3-32 32-32h272c4.4 0 8 3.6 8 8v56c0 4.4-3.6 8-8 8zM885.7-7.5l-93.3 93.3C814.7 115.3 828 152.1 828 192c0 97.2-78.8 176-176 176s-176-78.8-176-176 78.8-176 176-176c35.8 0 69 10.7 96.8 29l94.7-94.7c1.6-1.6 3.6-2.3 5.6-2.3s4.1 0.8 5.6 2.3l31 31c3.1 3.1 3.1 8.1 0 11.2zM652 80c-61.9 0-112 50.1-112 112s50.1 112 112 112 112-50.1 112-112-50.1-112-112-112z"  horiz-adv-x="1024" />

    
    <glyph glyph-name="solution" unicode="&#59361;" d="M688 632c0 4.4-3.6 8-8 8H296c-4.4 0-8-3.6-8-8v-48c0-4.4 3.6-8 8-8h384c4.4 0 8 3.6 8 8v48zM680 496H296c-4.4 0-8-3.6-8-8v-48c0-4.4 3.6-8 8-8h384c4.4 0 8 3.6 8 8v48c0 4.4-3.6 8-8 8zM480 352H296c-4.4 0-8-3.6-8-8v-48c0-4.4 3.6-8 8-8h184c4.4 0 8 3.6 8 8v48c0 4.4-3.6 8-8 8zM432 44H208V748h560v-344c0-4.4 3.6-8 8-8h56c4.4 0 8 3.6 8 8V788c0 17.7-14.3 32-32 32H168c-17.7 0-32-14.3-32-32v-784c0-17.7 14.3-32 32-32h264c4.4 0 8 3.6 8 8v56c0 4.4-3.6 8-8 8zM788.8 118.4c29 26.3 47.2 64.3 47.2 106.6 0 79.5-64.5 144-144 144s-144-64.5-144-144c0-42.3 18.2-80.3 47.2-106.6-57-32.5-96.2-92.7-99.2-162.1-0.2-4.5 3.5-8.3 8-8.3h48.1c4.2 0 7.7 3.3 8 7.6C564 24.8 621.7 80 692 80s128-55.2 131.9-124.4c0.2-4.2 3.7-7.6 8-7.6H880c4.6 0 8.2 3.8 8 8.3-2.9 69.5-42.2 129.6-99.2 162.1zM692 305c44.2 0 80-35.8 80-80s-35.8-80-80-80-80 35.8-80 80 35.8 80 80 80z"  horiz-adv-x="1024" />

    
    <glyph glyph-name="fileprotect" unicode="&#59362;" d="M644.7 226.8c-1.5 2.1-3.9 3.3-6.5 3.3H594c-6.5 0-10.3-7.4-6.5-12.7l73.8-102.1c3.2-4.4 9.7-4.4 12.9 0l114.2 158c3.8 5.3 0 12.7-6.5 12.7h-44.3c-2.6 0-5-1.2-6.5-3.3l-63.5-87.8-22.9 31.9zM688 590v48c0 4.4-3.6 8-8 8H296c-4.4 0-8-3.6-8-8v-48c0-4.4 3.6-8 8-8h384c4.4 0 8 3.6 8 8zM296 502c-4.4 0-8-3.6-8-8v-48c0-4.4 3.6-8 8-8h184c4.4 0 8 3.6 8 8v48c0 4.4-3.6 8-8 8H296zM480 44H208V748h560v-296c0-4.4 3.6-8 8-8h56c4.4 0 8 3.6 8 8V788c0 17.7-14.3 32-32 32H168c-17.7 0-32-14.3-32-32v-784c0-17.7 14.3-32 32-32h312c4.4 0 8 3.6 8 8v56c0 4.4-3.6 8-8 8zM882.6 364.8l-192 66.7c-0.9 0.3-1.7 0.4-2.6 0.4s-1.8-0.1-2.6-0.4l-192-66.7c-3.2-1.1-5.4-4.1-5.4-7.5v-251.1c0-2.5 1.1-4.8 3.1-6.3l192-150.2c1.4-1.1 3.2-1.7 4.9-1.7s3.5 0.6 4.9 1.7l192 150.2c1.9 1.5 3.1 3.8 3.1 6.3V357.3c0 3.4-2.2 6.4-5.4 7.5zM826 132.3L688 24.4 550 132.3V319l138 48 138-48v-186.7z"  horiz-adv-x="1024" />

    
    <glyph glyph-name="file-add" unicode="&#59363;" d="M854.6 607.4L639.4 822.6c-6 6-14.1 9.4-22.6 9.4H192c-17.7 0-32-14.3-32-32v-832c0-17.7 14.3-32 32-32h640c17.7 0 32 14.3 32 32V584.7c0 8.5-3.4 16.7-9.4 22.7zM790.2 570H602V758.2L790.2 570z m1.8-562H232V760h302v-216c0-23.2 18.8-42 42-42h216v-494zM544 424c0 4.4-3.6 8-8 8h-48c-4.4 0-8-3.6-8-8v-108H372c-4.4 0-8-3.6-8-8v-48c0-4.4 3.6-8 8-8h108v-108c0-4.4 3.6-8 8-8h48c4.4 0 8 3.6 8 8V252h108c4.4 0 8 3.6 8 8v48c0 4.4-3.6 8-8 8H544V424z"  horiz-adv-x="1024" />

    
    <glyph glyph-name="file-excel" unicode="&#59364;" d="M854.6 607.4L639.4 822.6c-6 6-14.1 9.4-22.6 9.4H192c-17.7 0-32-14.3-32-32v-832c0-17.7 14.3-32 32-32h640c17.7 0 32 14.3 32 32V584.7c0 8.5-3.4 16.7-9.4 22.7zM790.2 570H602V758.2L790.2 570z m1.8-562H232V760h302v-216c0-23.2 18.8-42 42-42h216v-494zM514.1 315.9l-61.8 102.4c-2.2 3.6-6.1 5.8-10.3 5.8h-38.4c-2.3 0-4.5-0.6-6.4-1.9-5.6-3.5-7.3-10.9-3.7-16.6l82.3-130.4-83.4-132.8c-1.2-1.9-1.8-4.1-1.8-6.4 0-6.6 5.4-12 12-12h34.5c4.2 0 8 2.2 10.2 5.7L510 231.2l62.3-101.4c2.2-3.6 6.1-5.7 10.2-5.7H620c2.3 0 4.5 0.7 6.5 1.9 5.6 3.6 7.2 11 3.6 16.6l-84 130.4 85.3 132.5c1.2 1.9 1.9 4.2 1.9 6.5 0 6.6-5.4 12-12 12h-35.7c-4.2 0-8.1-2.2-10.3-5.8l-61.2-102.3z"  horiz-adv-x="1024" />

    
    <glyph glyph-name="file-exclamation" unicode="&#59365;" d="M854.6 607.4L639.4 822.6c-6 6-14.1 9.4-22.6 9.4H192c-17.7 0-32-14.3-32-32v-832c0-17.7 14.3-32 32-32h640c17.7 0 32 14.3 32 32V584.7c0 8.5-3.4 16.7-9.4 22.7zM790.2 570H602V758.2L790.2 570z m1.8-562H232V760h302v-216c0-23.2 18.8-42 42-42h216v-494zM512 152m-40 0a40 40 0 1 1 80 0 40 40 0 1 1-80 0ZM488 256h48c4.4 0 8 3.6 8 8V448c0 4.4-3.6 8-8 8h-48c-4.4 0-8-3.6-8-8v-184c0-4.4 3.6-8 8-8z"  horiz-adv-x="1024" />

    
    <glyph glyph-name="file-pdf" unicode="&#59366;" d="M531.3 321.6l0.3 1.4c5.8 23.9 13.1 53.7 7.4 80.7-3.8 21.3-19.5 29.6-32.9 30.2-15.8 0.7-29.9-8.3-33.4-21.4-6.6-24-0.7-56.8 10.1-98.6-13.6-32.4-35.3-79.5-51.2-107.5-29.6-15.3-69.3-38.9-75.2-68.7-1.2-5.5 0.2-12.5 3.5-18.8 3.7-7 9.6-12.4 16.5-15 3-1.1 6.6-2 10.8-2 17.6 0 46.1 14.2 84.1 79.4 5.8 1.9 11.8 3.9 17.6 5.9 27.2 9.2 55.4 18.8 80.9 23.1 28.2-15.1 60.3-24.8 82.1-24.8 21.6 0 30.1 12.8 33.3 20.5 5.6 13.5 2.9 30.5-6.2 39.6-13.2 13-45.3 16.4-95.3 10.2-24.6 15-40.7 35.4-52.4 65.8zM421.6 169.7c-13.9-20.2-24.4-30.3-30.1-34.7 6.7 12.3 19.8 25.3 30.1 34.7z m87.6 235.5c5.2-8.9 4.5-35.8 0.5-49.4-4.9 19.9-5.6 48.1-2.7 51.4 0.8-0.1 1.5-0.7 2.2-2z m-1.6-120.5c10.7-18.5 24.2-34.4 39.1-46.2-21.6-4.9-41.3-13-58.9-20.2-4.2-1.7-8.3-3.4-12.3-5 13.3 24.1 24.4 51.4 32.1 71.4z m155.6-65.5c0.1-0.2 0.2-0.5-0.4-0.9h-0.2l-0.2-0.3c-0.8-0.5-9-5.3-44.3 8.6 40.6 1.9 45-7.3 45.1-7.4zM854.6 607.4L639.4 822.6c-6 6-14.1 9.4-22.6 9.4H192c-17.7 0-32-14.3-32-32v-832c0-17.7 14.3-32 32-32h640c17.7 0 32 14.3 32 32V584.7c0 8.5-3.4 16.7-9.4 22.7zM790.2 570H602V758.2L790.2 570z m1.8-562H232V760h302v-216c0-23.2 18.8-42 42-42h216v-494z"  horiz-adv-x="1024" />

    
    <glyph glyph-name="file-image" unicode="&#59367;" d="M553.1 386.9l-77.8-99.2-41.1 52.4c-3.2 4.1-9.4 4.1-12.6 0l-99.8-127.2c-4.1-5.2-0.4-12.9 6.3-12.9H696c6.7 0 10.4 7.7 6.3 12.9l-136.5 174c-3.3 4.1-9.5 4.1-12.7 0zM400 454m-40 0a40 40 0 1 1 80 0 40 40 0 1 1-80 0ZM854.6 607.4L639.4 822.6c-6 6-14.1 9.4-22.6 9.4H192c-17.7 0-32-14.3-32-32v-832c0-17.7 14.3-32 32-32h640c17.7 0 32 14.3 32 32V584.7c0 8.5-3.4 16.7-9.4 22.7zM790.2 570H602V758.2L790.2 570z m1.8-562H232V760h302v-216c0-23.2 18.8-42 42-42h216v-494z"  horiz-adv-x="1024" />

    
    <glyph glyph-name="file-markdown" unicode="&#59368;" d="M854.6 607.4L639.4 822.6c-6 6-14.1 9.4-22.6 9.4H192c-17.7 0-32-14.3-32-32v-832c0-17.7 14.3-32 32-32h640c17.7 0 32 14.3 32 32V584.7c0 8.5-3.4 16.7-9.4 22.7zM790.2 570H602V758.2L790.2 570z m1.8-562H232V760h302v-216c0-23.2 18.8-42 42-42h216v-494zM429 414.8c-1.9 4.4-6.2 7.2-11 7.2h-35c-6.6 0-12-5.4-12-12v-272c0-6.6 5.4-12 12-12h27.1c6.6 0 12 5.4 12 12V313.9l66.8-150.2c1.9-4.3 6.2-7.1 11-7.1H524c4.7 0 9 2.8 11 7.1l66.8 150.6V138c0-6.6 5.4-12 12-12H641c6.6 0 12 5.4 12 12V410c0 6.6-5.4 12-12 12h-34.7c-4.8 0-9.1-2.8-11-7.2l-83.1-191-83.2 191z"  horiz-adv-x="1024" />

    
    <glyph glyph-name="file-unknown" unicode="&#59369;" d="M854.6 607.3L639.4 822.6c-6 6-14.2 9.4-22.7 9.4H192c-17.7 0-32-14.3-32-32v-832c0-17.7 14.3-32 32-32h640c17.7 0 32 14.3 32 32V584.7c0 8.5-3.4 16.6-9.4 22.6zM790.2 570H602V758.2L790.2 570z m1.8-562H232V760h302v-216c0-23.2 18.8-42 42-42h216v-494zM402 347c0-5.4 4.4-9.5 9.8-9.5h32.4c5.4 0 9.8 4.2 9.8 9.4 0 28.2 25.8 51.6 58 51.6s58-23.4 58-51.5c0-25.3-21-47.2-49.3-50.9-19.3-2.8-34.5-20.3-34.7-40.1v-32c0-5.5 4.5-10 10-10h32c5.5 0 10 4.5 10 10v12.2c0 6 4 11.5 9.7 13.3 44.6 14.4 75 54 74.3 98.9-0.8 55.5-49.2 100.8-108.5 101.6-61.4 0.7-111.5-45.6-111.5-103zM512 152m-32 0a32 32 0 1 1 64 0 32 32 0 1 1-64 0Z"  horiz-adv-x="1024" />

    
    <glyph glyph-name="file-ppt" unicode="&#59370;" d="M424 420c-4.4 0-8-3.6-8-8v-276c0-4.4 3.6-8 8-8h32.5c4.4 0 8 3.6 8 8v95.5h63.3c59.4 0 96.2 38.9 96.2 94.1 0 54.5-36.3 94.3-96 94.3H424z m150.6-94.3c0-43.4-26.5-54.3-71.2-54.3h-38.9V379.8h56.2c33.8 0 53.9-19.7 53.9-54.1zM854.6 607.4L639.4 822.6c-6 6-14.1 9.4-22.6 9.4H192c-17.7 0-32-14.3-32-32v-832c0-17.7 14.3-32 32-32h640c17.7 0 32 14.3 32 32V584.7c0 8.5-3.4 16.7-9.4 22.7zM790.2 570H602V758.2L790.2 570z m1.8-562H232V760h302v-216c0-23.2 18.8-42 42-42h216v-494z"  horiz-adv-x="1024" />

    
    <glyph glyph-name="file-word" unicode="&#59371;" d="M854.6 607.4L639.4 822.6c-6 6-14.1 9.4-22.6 9.4H192c-17.7 0-32-14.3-32-32v-832c0-17.7 14.3-32 32-32h640c17.7 0 32 14.3 32 32V584.7c0 8.5-3.4 16.7-9.4 22.7zM790.2 570H602V758.2L790.2 570z m1.8-562H232V760h302v-216c0-23.2 18.8-42 42-42h216v-494zM528.1 424h-32.2c-5.5 0-10.3-3.7-11.6-9.1L434.6 216l-46.1 198.7c-1.3 5.4-6.1 9.3-11.7 9.3h-35.4c-1.1 0-2.1-0.1-3.1-0.4-6.4-1.7-10.2-8.3-8.5-14.7l74.2-276c1.4-5.2 6.2-8.9 11.6-8.9h32c5.4 0 10.2 3.6 11.6 8.9l52.8 197 52.8-197c1.4-5.2 6.2-8.9 11.6-8.9h31.8c5.4 0 10.2 3.6 11.6 8.9l74.4 276c0.3 1 0.4 2.1 0.4 3.1 0 6.6-5.4 12-12 12H647c-5.6 0-10.4-3.9-11.7-9.3l-45.8-199.1-49.8 199.3c-1.3 5.4-6.1 9.1-11.6 9.1z"  horiz-adv-x="1024" />

    
    <glyph glyph-name="file" unicode="&#59372;" d="M854.6 607.4L639.4 822.6c-6 6-14.1 9.4-22.6 9.4H192c-17.7 0-32-14.3-32-32v-832c0-17.7 14.3-32 32-32h640c17.7 0 32 14.3 32 32V584.7c0 8.5-3.4 16.7-9.4 22.7zM790.2 570H602V758.2L790.2 570z m1.8-562H232V760h302v-216c0-23.2 18.8-42 42-42h216v-494z"  horiz-adv-x="1024" />

    
    <glyph glyph-name="file-zip" unicode="&#59373;" d="M296 504h64v-64h-64zM296 314v-160h128V314h-64v62h-64v-62z m80-48v-64h-32v64h32zM360 568h64v-64h-64zM296 632h64v-64h-64zM360 440h64v-64h-64zM360 696h64v-64h-64zM854.6 607.4L639.4 822.6c-6 6-14.1 9.4-22.6 9.4H192c-17.7 0-32-14.3-32-32v-832c0-17.7 14.3-32 32-32h640c17.7 0 32 14.3 32 32V584.7c0 8.5-3.4 16.7-9.4 22.7zM790.2 570H602V758.2L790.2 570z m1.8-562H232V760h64v-64h64v64h174v-216c0-23.2 18.8-42 42-42h216v-494z"  horiz-adv-x="1024" />

    
    <glyph glyph-name="file-text" unicode="&#59374;" d="M854.6 607.4L639.4 822.6c-6 6-14.1 9.4-22.6 9.4H192c-17.7 0-32-14.3-32-32v-832c0-17.7 14.3-32 32-32h640c17.7 0 32 14.3 32 32V584.7c0 8.5-3.4 16.7-9.4 22.7zM790.2 570H602V758.2L790.2 570z m1.8-562H232V760h302v-216c0-23.2 18.8-42 42-42h216v-494zM504 278H320c-4.4 0-8-3.6-8-8v-48c0-4.4 3.6-8 8-8h184c4.4 0 8 3.6 8 8v48c0 4.4-3.6 8-8 8zM312 406v-48c0-4.4 3.6-8 8-8h384c4.4 0 8 3.6 8 8v48c0 4.4-3.6 8-8 8H320c-4.4 0-8-3.6-8-8z"  horiz-adv-x="1024" />

    
    <glyph glyph-name="file-copy" unicode="&#59375;" d="M832 832H296c-4.4 0-8-3.6-8-8v-56c0-4.4 3.6-8 8-8h496v-688c0-4.4 3.6-8 8-8h56c4.4 0 8 3.6 8 8V800c0 17.7-14.3 32-32 32zM704 704H192c-17.7 0-32-14.3-32-32v-530.7c0-8.5 3.4-16.6 9.4-22.6l173.3-173.3c2.2-2.2 4.7-4 7.4-5.5v-1.9h4.2c3.5-1.3 7.2-2 11-2H704c17.7 0 32 14.3 32 32V672c0 17.7-14.3 32-32 32zM350 39.8L263.9 126H350v-86.2zM664 8H414V150c0 22.1-17.9 40-40 40H232V632h432v-624z"  horiz-adv-x="1024" />

    
    <glyph glyph-name="snippets" unicode="&#59376;" d="M832 784H724V824c0 4.4-3.6 8-8 8h-56c-4.4 0-8-3.6-8-8v-40H500V824c0 4.4-3.6 8-8 8h-56c-4.4 0-8-3.6-8-8v-40H320c-17.7 0-32-14.3-32-32v-120h-96c-17.7 0-32-14.3-32-32v-632c0-17.7 14.3-32 32-32h512c17.7 0 32 14.3 32 32v96h96c17.7 0 32 14.3 32 32V752c0 17.7-14.3 32-32 32zM664 8H232V560h218v-174c0-22.1 17.9-40 40-40h174v-338z m0 402H514V560h0.2L664 410.2v-0.2z m128-274h-56V440L544 632H360v80h68v-32c0-4.4 3.6-8 8-8h56c4.4 0 8 3.6 8 8v32h152v-32c0-4.4 3.6-8 8-8h56c4.4 0 8 3.6 8 8v32h68v-576z"  horiz-adv-x="1024" />

    
    <glyph glyph-name="audit" unicode="&#59377;" d="M296 646c-4.4 0-8-3.6-8-8v-48c0-4.4 3.6-8 8-8h384c4.4 0 8 3.6 8 8v48c0 4.4-3.6 8-8 8H296zM480 502H296c-4.4 0-8-3.6-8-8v-48c0-4.4 3.6-8 8-8h184c4.4 0 8 3.6 8 8v48c0 4.4-3.6 8-8 8zM432 44H208V748h560v-320c0-4.4 3.6-8 8-8h56c4.4 0 8 3.6 8 8V788c0 17.7-14.3 32-32 32H168c-17.7 0-32-14.3-32-32v-784c0-17.7 14.3-32 32-32h264c4.4 0 8 3.6 8 8v56c0 4.4-3.6 8-8 8zM872 132H728v36.6c46.3 13.8 80 56.6 80 107.4 0 61.9-50.1 112-112 112s-112-50.1-112-112c0-50.7 33.7-93.6 80-107.4V132H520c-8.8 0-16-7.2-16-16v-152c0-8.8 7.2-16 16-16h352c8.8 0 16 7.2 16 16V116c0 8.8-7.2 16-16 16zM646 276c0 27.6 22.4 50 50 50s50-22.4 50-50-22.4-50-50-50-50 22.4-50 50z m180-266H566v60h260v-60z"  horiz-adv-x="1024" />

    
    <glyph glyph-name="diff" unicode="&#59378;" d="M476 496.9c0 3.9-3.1 7.1-7 7.1h-42c-3.8 0-7-3.2-7-7.1V412h-84.5c-4.1 0-7.5-3.1-7.5-7v-42c0-3.8 3.4-7 7.5-7H420v-84.9c0-3.9 3.2-7.1 7-7.1h42c3.9 0 7 3.2 7 7.1V356h84.5c4.1 0 7.5 3.2 7.5 7v42c0 3.9-3.4 7-7.5 7H476v84.9zM560.5 192h-225c-4.1 0-7.5-3.2-7.5-7v-42c0-3.8 3.4-7 7.5-7h225c4.1 0 7.5 3.2 7.5 7v42c0 3.8-3.4 7-7.5 7zM553.4 694.6c-6 6-14.1 9.4-22.6 9.4H192c-17.7 0-32-14.3-32-32v-704c0-17.7 14.3-32 32-32h512c17.7 0 32 14.3 32 32V498.7c0 8.5-3.4 16.6-9.4 22.6L553.4 694.6zM664 8H232V632h282.2L664 482.2V8zM854.2 589.4L611.3 823.1c-6 5.7-13.9 8.9-22.2 8.9H296c-4.4 0-8-3.6-8-8v-56c0-4.4 3.6-8 8-8h277l219-210.6V72c0-4.4 3.6-8 8-8h56c4.4 0 8 3.6 8 8V566.4c0 8.7-3.5 17-9.8 23z"  horiz-adv-x="1024" />

    
    <glyph glyph-name="Batchfolding" unicode="&#59379;" d="M752 656H144c-17.7 0-32-14.3-32-32v-608c0-17.7 14.3-32 32-32h608c17.7 0 32 14.3 32 32V624c0 17.7-14.3 32-32 32z m-40-600H184V584h528v-528zM880 784H264c-4.4 0-8-3.6-8-8v-56c0-4.4 3.6-8 8-8h576v-576c0-4.4 3.6-8 8-8h56c4.4 0 8 3.6 8 8V752c0 17.7-14.3 32-32 32zM300 346h296v-64H300z"  horiz-adv-x="1024" />

    
    <glyph glyph-name="securityscan" unicode="&#59380;" d="M866.9 726.1L527.1 841.9C523 843.3 517.5 844 512 844s-11-0.7-15.1-2.1L157.1 726.1c-8.3-2.8-15.1-12.4-15.1-21.2v-482.4c0-8.8 5.7-20.4 12.6-25.9L499.3-72c3.5-2.7 8-4.1 12.6-4.1s9.2 1.4 12.6 4.1l344.7 268.6c6.9 5.4 12.6 17 12.6 25.9V704.9c0.2 8.8-6.6 18.3-14.9 21.2zM810 241.7L512 9.5 214 241.7V669.3l298 101.6 298-101.6v-427.6zM402.9 367.2l-77.5-77.5c-3.1-3.1-3.1-8.2 0-11.3l34-34c3.1-3.1 8.2-3.1 11.3 0l77.5 77.5c55.7-35.1 130.1-28.4 178.6 20.1 56.3 56.3 56.3 147.5 0 203.8-56.3 56.3-147.5 56.3-203.8 0-48.5-48.5-55.2-123-20.1-178.6z m65.4 133.3c31.3 31.3 82 31.3 113.2 0 31.3-31.3 31.3-82 0-113.2-31.3-31.3-82-31.3-113.2 0s-31.3 81.9 0 113.2z"  horiz-adv-x="1024" />

    
    <glyph glyph-name="propertysafety" unicode="&#59381;" d="M866.9 726.1L527.1 841.9C523 843.3 517.5 844 512 844s-11-0.7-15.1-2.1L157.1 726.1c-8.3-2.8-15.1-12.4-15.1-21.2v-482.4c0-8.8 5.7-20.4 12.6-25.9L499.3-72c3.5-2.7 8-4.1 12.6-4.1s9.2 1.4 12.6 4.1l344.7 268.6c6.9 5.4 12.6 17 12.6 25.9V704.9c0.2 8.8-6.6 18.3-14.9 21.2zM810 241.7L512 9.5 214 241.7V669.3l298 101.6 298-101.6v-427.6zM430.5 578h-46c-1.7 0-3.3-0.4-4.8-1.2-4.8-2.6-6.6-8.7-4-13.6l88-161.1h-45.2c-5.5 0-10-4.5-10-10v-21.3c0-5.5 4.5-10 10-10h63.1v-29.7h-63.1c-5.5 0-10-4.5-10-10v-21.3c0-5.5 4.5-10 10-10h63.1V238c0-5.5 4.5-10 10-10h41.3c5.5 0 10 4.5 10 10v51.8h63.4c5.5 0 10 4.5 10 10v21.3c0 5.5-4.5 10-10 10h-63.4v29.7h63.4c5.5 0 10 4.5 10 10v21.3c0 5.5-4.5 10-10 10h-45.7l87.7 161.1c0.8 1.5 1.2 3.1 1.2 4.8 0 5.5-4.5 10-10 10h-45c-3.8 0-7.2-2.1-8.9-5.5l-73.2-144.3-72.9 144.3c-1.7 3.4-5.2 5.5-9 5.5z"  horiz-adv-x="1024" />

    
    <glyph glyph-name="safetycertificate" unicode="&#59382;" d="M866.9 726.1L527.1 841.9C523 843.3 517.5 844 512 844s-11-0.7-15.1-2.1L157.1 726.1c-8.3-2.8-15.1-12.4-15.1-21.2v-482.4c0-8.8 5.7-20.4 12.6-25.9L499.3-72c3.5-2.7 8-4.1 12.6-4.1s9.2 1.4 12.6 4.1l344.7 268.6c6.9 5.4 12.6 17 12.6 25.9V704.9c0.2 8.8-6.6 18.3-14.9 21.2zM810 241.7L512 9.5 214 241.7V669.3l298 101.6 298-101.6v-427.6zM404.2 442.7c-3 4.1-7.8 6.6-13 6.6H336c-6.5 0-10.3-7.4-6.5-12.7l126.4-174c6.4-8.8 19.6-8.8 26 0l212.6 292.7c3.8 5.3 0 12.7-6.5 12.7h-55.2c-5.1 0-10-2.5-13-6.6L468.9 353.6l-64.7 89.1z"  horiz-adv-x="1024" />

    
    </font>
</defs>
</svg>
